<?xml version="1.0" standalone="no"?>
<!DOCTYPE svg PUBLIC "-//W3C//DTD SVG 1.1//EN" "http://www.w3.org/Graphics/SVG/1.1/DTD/svg11.dtd" >
<svg xmlns="../svg.html">
<metadata></metadata>
<defs>
<font id="ralewayregular" horiz-adv-x="1548" >
<font-face units-per-em="2048" ascent="1638" descent="-410" />
<missing-glyph horiz-adv-x="524" />
<glyph unicode="ff" horiz-adv-x="1226" d="M1055 1393q-61 0 -108 -26t-74 -69t-40.5 -93t-13.5 -105v-158h338v-111h-338v-831h-139v831h-334v-831h-139v831h-148v111h148v90q0 107 34 196.5t109 148.5t180 59q130 0 232 -54q98 134 270 134q36 0 67.5 -5t55 -14.5t38.5 -17t31.5 -18.5t20.5 -13l-41 -100 q-27 22 -59 33.5t-90 11.5zM680 942v141q0 117 39 191q-56 41 -166 41q-55 0 -97.5 -27t-65 -70t-33.5 -89t-11 -93v-94h334z" />
<glyph unicode="fi" horiz-adv-x="1030" d="M207 0v831h-148v111h148v154q0 61 13.5 120t44 113.5t73.5 96t106.5 66t139.5 24.5q101 0 180.5 -30t128.5 -67l-64 -100q-35 32 -99.5 53t-137.5 21q-63 0 -111.5 -26t-77 -69t-43 -93.5t-14.5 -104.5v-158h535v-942h-140v831h-395v-831h-139z" />
<glyph unicode="fl" horiz-adv-x="1187" d="M1174 135l28 -115q-3 -3 -30 -10t-74.5 -14.5t-89.5 -7.5q-95 0 -151 55.5t-56 136.5v989q0 42 -11.5 79.5t-36.5 71t-70 53.5t-105 20q-79 0 -133 -48t-76.5 -116.5t-22.5 -149.5v-137h225v-111h-225v-831h-139v831h-148v111h148v164q0 187 94.5 298.5t276.5 111.5 q174 0 268 -88.5t94 -231.5v-956q0 -48 30 -87.5t83 -39.5q14 0 31.5 2.5t32.5 5.5t28 6t21 5z" />
<glyph unicode="ffi" horiz-adv-x="1501" d="M207 0v831h-148v111h148v90q0 107 34 196.5t109 148.5t180 59q130 0 232 -54q105 134 293 134q164 0 311 -97l-66 -100q-34 31 -98.5 52.5t-136.5 21.5q-63 0 -112 -26t-77.5 -69t-42.5 -93.5t-14 -104.5v-158h533v-942h-140v831h-393v-831h-139v831h-334v-831h-139z M346 942h334v141q0 117 39 191q-56 41 -166 41q-55 0 -97.5 -27t-65 -70t-33.5 -89t-11 -93v-94z" />
<glyph unicode="ffl" horiz-adv-x="1665" d="M1487 -12q-95 0 -152 55.5t-57 136.5v989q0 42 -11.5 79.5t-36 71t-69.5 53.5t-104 20q-80 0 -134 -48t-76 -116.5t-22 -149.5v-137h224v-111h-224v-831h-139v831h-340v-831h-139v831h-148v111h148v105q0 171 89.5 280t246.5 109q117 0 219 -54q97 134 293 134 q174 0 268 -88.5t94 -231.5v-956q0 -48 30 -87.5t83 -39.5q15 0 33 2.5t33 5.5t28 6t21 5l8 3l26 -115q-1 -3 -28.5 -10t-74.5 -14.5t-89 -7.5zM346 942h340v141q0 130 31 193q-53 39 -150 39q-109 0 -165 -77.5t-56 -186.5v-109z" />
<glyph horiz-adv-x="0" />
<glyph horiz-adv-x="0" />
<glyph unicode="&#xd;" horiz-adv-x="0" />
<glyph unicode=" "  horiz-adv-x="524" />
<glyph unicode="&#x09;" horiz-adv-x="524" />
<glyph unicode="&#xa0;" horiz-adv-x="524" />
<glyph unicode="!" horiz-adv-x="497" d="M319 467h-139v1001h139v-1001zM319 0h-139v229h139v-229z" />
<glyph unicode="&#x22;" horiz-adv-x="573" d="M250 1206h-123v260h123v-260zM444 1206h-120v260h120v-260z" />
<glyph unicode="#" horiz-adv-x="1400" d="M1321 1040v-104h-266l-97 -401h275v-111h-301l-103 -424h-118l104 424h-387l-102 -424h-119l106 424h-231v111h256l98 401h-268v104h295l98 414h119l-102 -414h387l100 414h119l-103 -414h240zM455 535h387l98 401h-389z" />
<glyph unicode="$" horiz-adv-x="1263" d="M1110 1296l-68 -114q-62 68 -159.5 109.5t-216.5 45.5v-546q102 -20 175 -41t141 -53.5t109.5 -74.5t66 -102.5t24.5 -138.5q0 -191 -138.5 -290.5t-369.5 -102.5v-199h-76v201q-304 18 -522 209l69 116q76 -80 197.5 -134.5t263.5 -63.5v547q-103 24 -172.5 46 t-131.5 53t-97.5 69t-55.5 91.5t-20 123.5q0 188 127.5 296t341.5 119v207h76v-205q249 -8 436 -168zM1032 367q0 60 -22 104t-71.5 76.5t-112.5 55t-160 46.5v-534q175 0 270.5 64t95.5 188zM274 1067q0 -112 74.5 -166t257.5 -96v530q-169 -7 -250.5 -76.5t-81.5 -191.5z " />
<glyph unicode="%" horiz-adv-x="1482" d="M397 887q-126 0 -215.5 86t-89.5 207q0 123 89.5 209t215.5 86q128 0 218 -86t90 -209q0 -121 -90 -207t-218 -86zM397 967q84 0 143.5 63.5t59.5 149.5q0 88 -61 150.5t-142 62.5q-82 0 -141 -63.5t-59 -149.5q0 -88 59 -150.5t141 -62.5zM1085 -20q-126 0 -215.5 85.5 t-89.5 208.5q0 121 89.5 207t215.5 86q127 0 216.5 -85.5t89.5 -207.5q0 -123 -89 -208.5t-217 -85.5zM1085 61q84 0 142.5 63t58.5 150t-60.5 150t-140.5 63q-84 0 -142 -63.5t-58 -149.5q0 -89 58.5 -151t141.5 -62zM213 -8l-72 63l574 697l555 710l71 -61l-569 -696z" />
<glyph unicode="&#x26;" horiz-adv-x="1376" d="M1356 0h-185l-167 176q-88 -94 -201.5 -145t-241.5 -51q-127 0 -232 49t-168 140t-63 206q0 71 23.5 133t70.5 116t95 94t119 89q-112 120 -155.5 195t-43.5 151q0 135 104.5 227.5t259.5 92.5q145 0 242.5 -80.5t97.5 -206.5q0 -61 -23.5 -115t-71.5 -103t-97.5 -86.5 t-124.5 -86.5l407 -426q89 168 89 360h118q-3 -250 -125 -446zM575 92q102 0 192 43.5t159 122.5l-441 465q-122 -85 -187 -167.5t-65 -184.5q0 -87 51 -152t127.5 -96t163.5 -31zM336 1157q0 -51 35.5 -108.5t140.5 -169.5q60 41 91 63t71.5 56t60 59t33.5 58t14 67 q0 79 -60 130.5t-151 51.5q-100 0 -167.5 -60.5t-67.5 -146.5z" />
<glyph unicode="'" horiz-adv-x="348" d="M236 1237h-123v229h123v-229z" />
<glyph unicode="(" horiz-adv-x="548" d="M90 709q0 192 74 383t213 421l106 -51q-98 -144 -180 -361.5t-82 -398.5q0 -158 68.5 -346.5t191.5 -375.5l-104 -56q-287 427 -287 785z" />
<glyph unicode=")" horiz-adv-x="548" d="M459 709q0 -358 -287 -785l-104 56q123 187 191.5 375.5t68.5 346.5q0 180 -82 397t-180 363l106 51q139 -230 213 -421t74 -383z" />
<glyph unicode="*" horiz-adv-x="661" d="M242 1073l-62 45l88 127l-141 45l23 74l141 -53l-6 149h90l-6 -149l141 53l22 -74l-139 -45l90 -127l-65 -45l-88 133z" />
<glyph unicode="+" horiz-adv-x="856" d="M492 784h256v-114h-256v-277h-127v277h-256v114h256v277h127v-277z" />
<glyph unicode="," horiz-adv-x="419" d="M113 -137v106q17 0 30 9.5t13 33.5v189h118v-209q0 -65 -47.5 -97t-113.5 -32z" />
<glyph unicode="-" horiz-adv-x="866" d="M731 494h-596v129h596v-129z" />
<glyph unicode="." horiz-adv-x="387" d="M254 0h-119v201h119v-201z" />
<glyph unicode="/" horiz-adv-x="1241" d="M1026 1454h160l-969 -1454h-158z" />
<glyph unicode="0" horiz-adv-x="1259" d="M1145 600q0 -177 -66.5 -319t-184 -221.5t-263.5 -79.5q-147 0 -264.5 79.5t-183.5 221t-66 319.5q0 133 39 249t106.5 198t163 129t205.5 47q146 0 263.5 -80t184 -223t66.5 -320zM1004 600q0 219 -104 355.5t-269 136.5q-166 0 -270.5 -136.5t-104.5 -355.5t104.5 -354 t270.5 -135q165 0 269 135t104 354z" />
<glyph unicode="1" horiz-adv-x="876" d="M571 127h260v-127h-694v127h291v877q-38 -50 -148 -107t-186 -57v135q44 0 103.5 26.5t107.5 61t83 65t40 41.5h143v-1042z" />
<glyph unicode="2" horiz-adv-x="1091" d="M983 0h-879q0 83 14 151t50 138t105 132.5t171 115.5q24 13 78 38.5t85.5 41.5t75 44.5t68 53.5t42.5 60.5t18 74.5q0 86 -71.5 150.5t-196.5 64.5q-191 0 -328 -170l-92 100q14 16 33.5 34.5t62.5 49t90 53.5t116.5 40.5t141.5 17.5q179 0 286.5 -94t107.5 -230 q0 -63 -26 -119t-62.5 -93.5t-88.5 -71.5t-89 -52t-79 -37q-7 -3 -10 -4q-182 -82 -251.5 -157.5t-88.5 -204.5h717v-127z" />
<glyph unicode="3" horiz-adv-x="1097" d="M705 483q135 -22 215.5 -122t80.5 -248q0 -186 -130.5 -300t-342.5 -114q-154 0 -271.5 62t-176.5 173l96 89q44 -92 134 -144.5t218 -52.5q154 0 242 76t88 213q0 141 -94 223t-264 82h-51v119h55q154 0 239.5 72t85.5 192q0 118 -82.5 184t-214.5 66q-116 0 -205.5 -52 t-133.5 -145l-91 86q51 107 172.5 172.5t270.5 65.5q189 0 309.5 -102.5t120.5 -264.5q0 -127 -73 -219.5t-197 -110.5z" />
<glyph unicode="4" horiz-adv-x="1110" d="M866 -260h-139v364h-684v123l727 942h96v-938h181v-127h-181v-364zM739 950l-549 -719h549v719z" />
<glyph unicode="5" horiz-adv-x="1128" d="M573 639q132 0 240.5 -58.5t172 -165t63.5 -239.5q0 -141 -68.5 -252t-183.5 -170t-254 -59q-153 0 -278 75.5t-187 202.5l92 70q58 -101 158 -162t217 -61q154 0 257 99.5t103 254.5q0 149 -99 244.5t-247 95.5q-98 0 -183 -42.5t-138 -121.5h-129l161 819h703v-129 h-598l-101 -522q53 57 131 89t168 32z" />
<glyph unicode="6" horiz-adv-x="1241" d="M1149 479q0 -136 -67.5 -250.5t-186 -181.5t-260.5 -67q-234 0 -378 164t-144 444q0 432 143.5 654t392.5 222q142 0 257 -72t175 -198l-90 -82q-41 104 -135 166.5t-209 62.5q-182 0 -291 -168.5t-110 -465.5q44 120 154.5 192t248.5 72q137 0 252 -65.5t181.5 -178.5 t66.5 -248zM637 102q155 0 267 111t112 266t-112.5 266t-266.5 111q-157 0 -269 -111t-112 -266q0 -154 113 -265.5t268 -111.5z" />
<glyph unicode="7" horiz-adv-x="1126" d="M205 -260l674 1325h-785v129h1006l-735 -1454h-160z" />
<glyph unicode="8" horiz-adv-x="1220" d="M1114 403q0 -123 -70.5 -220t-186 -148t-253.5 -51q-216 0 -358 124.5t-142 303.5q0 130 86.5 227.5t204.5 138.5q-104 43 -171.5 123t-67.5 182q0 70 26.5 130.5t71 104t103 75t123 46.5t130.5 15q83 0 163 -25t145.5 -70t106 -116.5t40.5 -157.5q0 -102 -69.5 -183 t-174.5 -124q127 -44 210 -143.5t83 -231.5zM973 414q0 93 -56.5 164.5t-138.5 106t-170 34.5q-91 0 -172.5 -37t-134.5 -109t-53 -161q0 -91 56 -162t138 -106t170 -35q89 0 171 37t136 108.5t54 159.5zM297 1077q0 -76 48.5 -134.5t119 -86t145.5 -27.5q74 0 144.5 28.5 t120 88t49.5 135.5q0 112 -93.5 179t-222.5 67q-127 0 -219 -68.5t-92 -181.5z" />
<glyph unicode="9" horiz-adv-x="1206" d="M78 670q0 136 67.5 250.5t186 181.5t260.5 67q234 0 378 -164t144 -444q0 -432 -143.5 -654t-392.5 -222q-142 0 -257.5 72t-175.5 198l91 82q41 -104 135 -167t209 -63q182 0 291 168.5t110 466.5q-44 -120 -154.5 -192t-248.5 -72q-137 0 -252 65.5t-181.5 178.5 t-66.5 248zM590 1047q-155 0 -267 -111t-112 -266t112.5 -266t266.5 -111q157 0 269 111t112 266q0 154 -113 265.5t-268 111.5z" />
<glyph unicode=":" horiz-adv-x="403" d="M260 860h-117v201h117v-201zM260 0h-117v201h117v-201z" />
<glyph unicode=";" horiz-adv-x="434" d="M281 860h-119v201h119v-201zM119 -137v106q17 0 30 9.5t13 33.5v189h119v-209q0 -65 -48 -97t-114 -32z" />
<glyph unicode="&#x3c;" horiz-adv-x="1036" d="M70 489v76l858 516v-149l-658 -402l658 -399v-154z" />
<glyph unicode="=" horiz-adv-x="903" d="M762 397h-619v101h619v-101zM762 633h-619v100h619v-100z" />
<glyph unicode="&#x3e;" horiz-adv-x="1036" d="M969 565v-76l-860 -512v154l657 399l-657 402v149z" />
<glyph unicode="?" horiz-adv-x="980" d="M436 414h-119q0 132 42 212.5t133 135.5q16 9 58 32.5t65.5 37.5t58.5 42.5t54 56t33.5 69.5t14.5 90q0 126 -82 196t-196 70q-105 0 -194.5 -59t-135.5 -150l-96 61q56 123 173.5 194t254.5 71q77 0 147.5 -24.5t127 -71.5t90.5 -124t34 -172q0 -45 -9 -85t-20.5 -68.5 t-36.5 -57.5t-42 -45.5t-54 -40.5t-54 -34t-60 -33q-37 -20 -57.5 -33t-49 -39.5t-43.5 -54.5t-26 -73.5t-11 -102.5zM440 0h-121v219h121v-219z" />
<glyph unicode="@" horiz-adv-x="1691" d="M860 1235q150 0 286.5 -57t238 -158t161.5 -248t60 -317q0 -31 -2 -64t-9.5 -83.5t-19.5 -94.5t-35 -90.5t-53 -79.5t-76.5 -54.5t-103.5 -21.5q-49 0 -82.5 15t-51.5 44t-26 58.5t-12 71.5q-61 -64 -153 -105t-194 -41q-142 0 -224.5 76.5t-82.5 198.5q0 60 22.5 108.5 t59 78.5t86.5 50.5t102 28.5t109 8q128 0 260 -47q0 77 -12 134.5t-39.5 103t-78.5 69t-124 23.5q-154 0 -286 -97l-37 80q159 107 334 107q64 0 114.5 -13.5t85 -35t60 -55t40 -68t22.5 -79.5t10.5 -83t2.5 -86v-264q0 -51 3.5 -84t14 -63t32.5 -44t55 -14q61 0 105.5 42.5 t67 110.5t32.5 133.5t10 129.5q0 195 -88 357t-243 255.5t-343 93.5q-186 0 -342 -88.5t-248 -248.5t-92 -357q0 -192 87 -352.5t241 -254t342 -93.5q158 0 315 77l27 -65q-165 -82 -342 -82q-151 0 -288 58.5t-237.5 159.5t-159.5 245t-59 307q0 169 63 314t168 242.5 t242 152.5t285 55zM985 143q78 36 105.5 88.5t27.5 120.5v82q-9 1 -50 13t-97.5 22t-114.5 10t-106 -9.5t-88.5 -30.5t-63.5 -59.5t-23 -90.5q0 -84 62 -137.5t158 -53.5q98 0 190 45z" />
<glyph unicode="A" horiz-adv-x="1390" d="M182 0h-151l608 1454h117l608 -1454h-154l-188 455h-653zM989 567l-291 719l-299 -719h590z" />
<glyph unicode="B" horiz-adv-x="1368" d="M1276 375q0 -106 -55.5 -192.5t-148.5 -134.5t-204 -48h-684v1454h699q98 0 175.5 -55.5t116.5 -139t39 -176.5q0 -110 -55.5 -202t-152.5 -136q124 -37 197 -137.5t73 -232.5zM1133 399q0 110 -72.5 193.5t-177.5 83.5h-557v-551h542q111 0 188 82.5t77 191.5zM838 1329 h-512v-536h499q105 0 177.5 80t72.5 188q0 112 -67.5 190t-169.5 78z" />
<glyph unicode="C" horiz-adv-x="1411" d="M90 737q0 133 47 261t132.5 232t219 168t291.5 64q188 0 327.5 -86t209.5 -231l-115 -70q-33 70 -83 121.5t-108 80.5t-117.5 42.5t-121.5 13.5q-101 0 -189 -34.5t-151.5 -93.5t-109 -136.5t-67.5 -164t-22 -175.5q0 -160 71 -300.5t197.5 -226t276.5 -85.5 q86 0 169 27.5t159.5 90t120.5 152.5l119 -61q-45 -104 -140.5 -182.5t-208.5 -117t-227 -38.5q-116 0 -223 42t-189 115.5t-143 168t-93 204t-32 219.5z" />
<glyph unicode="D" horiz-adv-x="1470" d="M676 0h-492v1454h492q136 0 250.5 -37t196 -103t138 -157t84 -199t27.5 -229q0 -331 -189 -530t-507 -199zM1229 729q0 267 -146.5 432.5t-406.5 165.5h-350v-1200h350q133 0 239 46t174 127t104 190.5t36 238.5z" />
<glyph unicode="E" horiz-adv-x="1255" d="M326 127h835v-127h-977v1454h959v-127h-817v-524h712v-121h-712v-555z" />
<glyph unicode="F" horiz-adv-x="1198" d="M326 0h-142v1454h953v-127h-811v-534h686v-119h-686v-674z" />
<glyph unicode="G" horiz-adv-x="1478" d="M1237 0v211q-203 -221 -465 -221q-114 0 -220.5 41t-188.5 113t-144 165t-94.5 201.5t-32.5 218.5q0 145 51 279t138.5 234.5t214 161t268.5 60.5q395 0 555 -317l-111 -74q-137 262 -446 262q-118 0 -218.5 -51.5t-166.5 -136.5t-103.5 -194.5t-37.5 -225.5 q0 -162 71.5 -301.5t197.5 -223t277 -83.5q253 0 455 241v244h-322v111h445v-715h-123z" />
<glyph unicode="H" horiz-adv-x="1513" d="M1188 1454h143v-1454h-143v680h-862v-680h-142v1454h142v-647h862v647z" />
<glyph unicode="I" horiz-adv-x="509" d="M326 0h-142v1452h142v-1452z" />
<glyph unicode="J" horiz-adv-x="995" d="M37 68l41 114q109 -76 274 -76q63 0 112 14t84 38t60 65.5t40 87.5t23.5 113.5t11.5 133.5t3 157v737h143v-737q0 -103 -4 -180.5t-16.5 -158.5t-34 -138t-57 -109t-85.5 -83.5t-120 -50t-160 -18.5q-182 0 -315 91z" />
<glyph unicode="K" horiz-adv-x="1312" d="M326 0h-142v1452h142v-844l800 846h158l-594 -639l627 -815h-158l-557 731l-276 -285v-446z" />
<glyph unicode="L" horiz-adv-x="1208" d="M1167 0h-983v1454h142v-1327h841v-127z" />
<glyph unicode="M" horiz-adv-x="1798" d="M1614 0h-141v1194l-531 -924h-84l-532 924v-1194h-142v1454h146l569 -995l569 995h146v-1454z" />
<glyph unicode="N" horiz-adv-x="1583" d="M1276 0l-950 1188v-1188h-142v1454h111l962 -1210v1208h142v-1452h-123z" />
<glyph unicode="O" d="M774 -10q-148 0 -277.5 63t-217 166t-137.5 235.5t-50 272.5q0 144 53 278.5t142.5 235.5t218 162t270.5 61q118 0 226 -41.5t189.5 -113.5t142 -166t91.5 -201.5t31 -216.5q0 -144 -52.5 -278t-142 -235t-217.5 -161.5t-270 -60.5zM236 727q0 -158 67 -296.5t192 -225 t279 -86.5q120 0 223 53t171 139t106.5 194.5t38.5 221.5q0 158 -68 296t-193 224t-278 86q-120 0 -223 -52.5t-170.5 -138t-106 -194t-38.5 -221.5z" />
<glyph unicode="P" horiz-adv-x="1271" d="M326 0h-142v1454h602q120 0 221 -67.5t155.5 -172t54.5 -217.5q0 -120 -51.5 -224.5t-148.5 -170t-218 -65.5h-473v-537zM326 1327v-663h465q125 0 203.5 98t78.5 235q0 136 -87.5 233t-207.5 97h-452z" />
<glyph unicode="Q" d="M1282 0l-111 129q-179 -139 -397 -139q-119 1 -226.5 41.5t-189.5 111.5t-142.5 163.5t-92 201t-31.5 219.5q0 144 53 278.5t142.5 235.5t218 162t270.5 61q118 0 226 -41.5t189.5 -113.5t142 -166t91.5 -201.5t31 -216.5q0 -147 -54 -283t-151 -239l172 -203h-141z M774 119q174 0 313 110l-182 217h142l116 -139q72 86 111 196t39 224q0 158 -68 296.5t-193 225t-278 86.5q-96 0 -182 -34t-150 -93.5t-111 -136.5t-71 -165.5t-24 -178.5q0 -158 67 -296.5t192 -225t279 -86.5z" />
<glyph unicode="R" horiz-adv-x="1351" d="M326 0h-142v1454h613q121 0 222 -67.5t155.5 -172t54.5 -217.5q0 -160 -90.5 -283.5t-235.5 -152.5l359 -561h-162l-344 537h-430v-537zM326 1327v-663h477q83 0 148.5 47.5t99.5 123t34 162.5q0 133 -87.5 231.5t-206.5 98.5h-465z" />
<glyph unicode="S" horiz-adv-x="1253" d="M1106 1296l-68 -114q-63 71 -167 113t-230 42q-188 0 -279.5 -70.5t-91.5 -199.5q0 -51 16.5 -89.5t44.5 -65.5t82 -49.5t112 -38.5t151 -36q101 -22 172 -43t137.5 -53.5t106 -74t63 -100.5t23.5 -136q0 -130 -68.5 -220t-184 -131.5t-270.5 -41.5q-340 0 -583 211 l69 116q84 -88 220.5 -144t295.5 -56q176 0 273.5 64t97.5 188q0 53 -19 93.5t-51 70t-90.5 54.5t-121 43t-158.5 40q-99 23 -165.5 44t-127.5 51.5t-95.5 68.5t-54.5 91.5t-20 123.5q0 198 142 307.5t376 109.5q271 0 463 -168z" />
<glyph unicode="T" horiz-adv-x="1257" d="M1219 1454v-127h-519v-1327h-143v1327h-518v127h1180z" />
<glyph unicode="U" horiz-adv-x="1546" d="M772 119q107 0 190.5 34.5t135.5 91.5t85.5 136.5t46.5 162.5t13 177v733h143v-733q0 -121 -20.5 -226.5t-67 -199.5t-116 -160.5t-174 -105.5t-234.5 -39q-135 0 -241 41t-174.5 109t-114 163.5t-64 198.5t-18.5 219v733h141v-733q0 -96 14 -180t48 -163t86 -135.5 t134 -90t187 -33.5z" />
<glyph unicode="V" horiz-adv-x="1386" d="M25 1454h149l520 -1276l516 1276h152l-606 -1454h-125z" />
<glyph unicode="W" horiz-adv-x="2142" d="M981 823l-254 621h137l205 -516l207 516h135l-254 -621l279 -657l526 1288h156l-615 -1454h-127l-305 719l-307 -719h-127l-612 1454h151l529 -1288z" />
<glyph unicode="X" horiz-adv-x="1292" d="M10 1454h160l477 -635l477 635h158l-559 -737l543 -717h-158l-461 614l-461 -614h-159l542 717z" />
<glyph unicode="Y" horiz-adv-x="1298" d="M16 1454h156l477 -782l479 782h156l-565 -913v-541h-141v545z" />
<glyph unicode="Z" horiz-adv-x="1277" d="M57 0v113l990 1214h-973v127h1138v-113l-976 -1214h974v-127h-1153z" />
<glyph unicode="[" horiz-adv-x="507" d="M416 -82h-244v1598h244v-117h-113v-1364h113v-117z" />
<glyph unicode="\" horiz-adv-x="1165" d="M55 1454h160l891 -1454h-158z" />
<glyph unicode="]" horiz-adv-x="507" d="M336 -82h-244v117h115v1364h-115v117h244v-1598z" />
<glyph unicode="^" horiz-adv-x="1107" d="M209 621h-119l406 833h118l404 -833h-123l-340 702z" />
<glyph unicode="_" horiz-adv-x="849" d="M815 -127h-780v127h780v-127z" />
<glyph unicode="`" horiz-adv-x="454" d="M279 1270l-179 225h146l123 -190z" />
<glyph unicode="a" horiz-adv-x="1122" d="M432 -20q-161 0 -263.5 95t-102.5 230q0 148 124.5 238t325.5 90q175 0 313 -55v96q0 141 -81 224t-218 83q-163 0 -344 -127l-49 92q207 139 408 139q195 0 309.5 -113t114.5 -310v-482q0 -57 49 -57v-123q-46 -4 -55 -4q-44 0 -77 25.5t-36 72.5l-4 84 q-68 -92 -182 -145t-232 -53zM467 86q94 0 185 41t143 109q34 47 34 79v174q-147 56 -292 56q-151 0 -243.5 -61.5t-92.5 -166.5q0 -93 70 -162t196 -69z" />
<glyph unicode="b" horiz-adv-x="1261" d="M672 -20q-122 0 -229.5 62.5t-168.5 164.5v-207h-124v1495h139v-651q162 241 407 241q108 0 200.5 -47.5t153.5 -125.5t95.5 -177.5t34.5 -204.5q0 -148 -66.5 -274t-183.5 -201t-258 -75zM639 102q113 0 205 61.5t142 159t50 207.5q0 112 -47.5 210.5t-135.5 160.5 t-196 62q-119 0 -216 -75.5t-152 -191.5v-331q17 -106 128.5 -184.5t221.5 -78.5z" />
<glyph unicode="c" horiz-adv-x="1126" d="M80 537q0 151 67 276t190 198.5t277 73.5q149 0 263 -68t172 -186l-136 -43q-44 82 -125 128.5t-178 46.5q-164 0 -275.5 -122t-111.5 -304q0 -181 114.5 -308t274.5 -127q101 0 194 54.5t118 128.5l135 -41q-43 -116 -166.5 -190t-276.5 -74q-151 0 -274.5 76 t-192.5 203.5t-69 277.5z" />
<glyph unicode="d" horiz-adv-x="1275" d="M592 -20q-108 0 -204.5 45.5t-163.5 121.5t-105.5 176t-38.5 207q0 150 62 276.5t174.5 202.5t250.5 76q128 0 234 -67t172 -174v651h139v-1315q0 -57 49 -57v-123q-35 -6 -55 -6q-50 0 -83.5 29t-33.5 71v113q-64 -104 -172 -165.5t-225 -61.5zM621 102q111 0 223 80 t129 185v329q-41 110 -150.5 188.5t-218.5 78.5q-110 0 -199 -63t-135.5 -161.5t-46.5 -208.5q0 -114 52.5 -212.5t144.5 -157t201 -58.5z" />
<glyph unicode="e" horiz-adv-x="1202" d="M616 -20q-152 0 -275.5 76t-192 203t-68.5 278q0 148 68.5 273.5t191.5 200t274 74.5t273 -75.5t188.5 -200t67.5 -270.5q0 -40 -4 -56h-912q12 -171 125.5 -284t268.5 -113q107 0 199 53.5t128 139.5l121 -33q-50 -118 -175 -192t-278 -74zM223 590h787 q-13 169 -125.5 278t-270.5 109t-269.5 -109.5t-121.5 -277.5z" />
<glyph unicode="f" horiz-adv-x="706" d="M346 0h-139v831h-148v111h148v154q0 195 84.5 307.5t230.5 112.5q128 0 223 -68l-43 -100q-60 47 -153 47q-98 0 -150.5 -76t-52.5 -219v-158h295v-111h-295v-831z" />
<glyph unicode="g" horiz-adv-x="1261" d="M582 -14q-142 0 -258 77.5t-179 201.5t-63 265q0 148 62 274.5t176.5 203.5t257.5 77q244 0 409 -241v223h125v-1071q0 -144 -72 -248.5t-189 -154.5t-263 -50q-174 0 -288 62t-189 180l86 68q61 -98 164.5 -148.5t226.5 -50.5q166 0 275.5 89t109.5 253v211 q-63 -101 -169 -161t-222 -60zM621 102q122 0 227.5 82t124.5 183v329q-46 116 -151 191.5t-220 75.5q-114 0 -202.5 -65.5t-132.5 -163.5t-44 -206q0 -173 116 -299.5t282 -126.5z" />
<glyph unicode="h" horiz-adv-x="1185" d="M1047 625v-625h-140v596q0 362 -245 362q-120 0 -228.5 -88t-144.5 -217v-653h-139v1495h139v-670q64 120 177.5 190t242.5 70q338 0 338 -460z" />
<glyph unicode="i" horiz-adv-x="438" d="M289 0h-139v1067h139v-1067zM289 1290h-139v205h139v-205z" />
<glyph unicode="j" horiz-adv-x="438" d="M-25 -371q-147 0 -233 80l68 94q54 -49 149 -49q74 0 132.5 55.5t58.5 135.5v1122h139v-1114q0 -137 -95 -230.5t-219 -93.5zM289 1290h-139v205h139v-205z" />
<glyph unicode="k" horiz-adv-x="1079" d="M1063 0h-152l-393 547l-229 -213v-334h-139v1495h139v-1016l600 586h158l-437 -436z" />
<glyph unicode="l" horiz-adv-x="540" d="M156 195v1300h139v-1253q0 -60 33 -93.5t92 -33.5q55 0 110 22l25 -112q-39 -15 -95.5 -26t-97.5 -11q-96 0 -151 55t-55 152z" />
<glyph unicode="m" horiz-adv-x="1875" d="M1737 625v-625h-140v596q0 185 -58 273.5t-177 88.5q-120 0 -215.5 -85t-134.5 -222v-651h-140v596q0 188 -57 275t-176 87t-214.5 -84t-135.5 -221v-653h-139v1067h126v-242q66 123 172.5 191.5t235.5 68.5q131 0 214 -75t101 -199q149 274 414 274q324 0 324 -460z" />
<glyph unicode="n" horiz-adv-x="1185" d="M1047 625v-625h-140v596q0 188 -55 275t-172 87q-126 0 -239 -87t-152 -218v-653h-139v1067h126v-242q65 117 188.5 188.5t264.5 71.5q88 0 150.5 -31.5t99 -93.5t52.5 -144t16 -191z" />
<glyph unicode="o" horiz-adv-x="1218" d="M610 -20q-114 0 -213.5 44.5t-168.5 119t-108.5 175.5t-39.5 211q0 148 68 275.5t190.5 203.5t271.5 76t271.5 -76t191 -203.5t68.5 -275.5t-68 -273.5t-190.5 -201t-272.5 -75.5zM223 528q0 -178 112.5 -302t272.5 -124t274.5 126t114.5 304t-114 304.5t-273 126.5 q-160 0 -273.5 -127.5t-113.5 -307.5z" />
<glyph unicode="p" horiz-adv-x="1259" d="M696 -20q-129 0 -234.5 66t-172.5 175v-657h-139v1503h124v-207q66 102 172.5 163.5t225.5 61.5q143 0 261 -79t182.5 -205.5t64.5 -268.5q0 -150 -60.5 -276t-172 -201t-251.5 -75zM657 102q110 0 198.5 62.5t134.5 160t46 207.5q0 174 -116 302.5t-281 128.5 q-70 0 -146.5 -35.5t-134.5 -98t-69 -131.5v-327q48 -117 149.5 -193t218.5 -76z" />
<glyph unicode="q" horiz-adv-x="1259" d="M563 -20q-140 0 -252 78t-171.5 203.5t-59.5 270.5q0 147 67 274t184.5 203t256.5 76q121 0 227.5 -63t169.5 -164v209h125v-1317q0 -29 11.5 -43.5t37.5 -15.5v-121q-27 -6 -59 -6q-54 0 -91.5 36.5t-37.5 90.5v530q-156 -241 -408 -241zM606 102q119 0 211.5 70 t153.5 182v330q-17 108 -128 193.5t-227 85.5q-84 0 -158.5 -37t-125 -98t-80 -139t-29.5 -159q0 -176 109.5 -302t273.5 -126z" />
<glyph unicode="r" horiz-adv-x="718" d="M682 1071v-127q-141 -5 -246 -78.5t-147 -201.5v-664h-139v1067h131v-256q57 116 148.5 189t191.5 73q47 0 61 -2z" />
<glyph unicode="s" horiz-adv-x="997" d="M508 -20q-127 0 -245.5 41t-203.5 118l64 94q178 -147 383 -147q129 0 205.5 53.5t76.5 147.5q0 35 -14 62t-35.5 45.5t-66.5 36t-87.5 29t-117.5 29.5q-83 20 -133.5 36t-98.5 38t-72.5 48t-39 63.5t-14.5 87.5q0 104 55 178.5t143.5 109.5t200.5 35q120 0 221 -39.5 t164 -105.5l-68 -82q-59 60 -143.5 91.5t-177.5 31.5q-116 0 -189 -50t-73 -149q0 -34 10.5 -58.5t27 -41t53.5 -31.5t73 -25t102 -26q92 -22 150 -39.5t114 -42.5t86 -54t48 -70t18 -95q0 -146 -113.5 -232.5t-302.5 -86.5z" />
<glyph unicode="t" horiz-adv-x="679" d="M629 164l37 -113q-1 -1 -20.5 -9.5t-32 -13.5t-37.5 -13.5t-46 -13.5t-50 -9t-56 -4q-96 0 -160.5 53.5t-64.5 151.5v763h-148v111h148v360h139v-360h246v-111h-246v-725q4 -56 39.5 -85t89.5 -29q87 0 162 47z" />
<glyph unicode="u" horiz-adv-x="1216" d="M479 -20q-167 0 -253.5 116.5t-86.5 343.5v627h140v-602q0 -363 247 -363q125 0 231.5 80t153.5 213v672h140v-887q0 -57 51 -57v-123q-40 -6 -58 -6q-48 0 -81 29t-33 71v148q-70 -124 -190 -193t-261 -69z" />
<glyph unicode="v" horiz-adv-x="1085" d="M616 0h-147l-434 1067h145l367 -938l368 938h136z" />
<glyph unicode="w" horiz-adv-x="1669" d="M1114 143l387 924h135l-456 -1067h-117l-227 545l-228 -545h-116l-457 1067h133l389 -924l203 488l-182 434h118l140 -348l137 348h119l-181 -434z" />
<glyph unicode="x" horiz-adv-x="1024" d="M27 1067h149l320 -418l16 -31l18 31l318 418h149l-407 -537l407 -530h-149l-318 416l-18 28l-16 -28l-318 -416h-151l407 530z" />
<glyph unicode="y" horiz-adv-x="1110" d="M211 -453v123q24 -4 41 -4q50 0 78 12q23 9 53 68t109 254l-465 1067h145l395 -938l365 938h133l-555 -1376q-32 -77 -85 -113.5t-144 -36.5q-40 0 -70 6z" />
<glyph unicode="z" horiz-adv-x="995" d="M57 0v94l721 869h-704v104h856v-94l-717 -869h717v-104h-873z" />
<glyph unicode="{" horiz-adv-x="518" d="M428 1399h-113v-535q0 -77 -55 -127q29 -25 42 -61t13 -66v-557h113v-116h-192q-20 0 -34 14.5t-14 46.5v575q0 42 -21.5 75.5t-57.5 37.5v107q38 0 58.5 36.5t20.5 71.5v553q0 33 16 47.5t32 14.5h192v-117z" />
<glyph unicode="|" horiz-adv-x="456" d="M289 -266h-121v1853h121v-1853z" />
<glyph unicode="}" horiz-adv-x="518" d="M205 1399h-113v117h193q15 0 31 -14.5t16 -47.5v-553q0 -35 20 -71.5t58 -36.5v-107q-36 -4 -57 -37t-21 -76v-575q0 -32 -14.5 -46.5t-32.5 -14.5h-193v116h113v557q0 81 53 127q-53 48 -53 127v535z" />
<glyph unicode="~" horiz-adv-x="1040" d="M133 494q0 10 7 32.5t24 53.5t41 58.5t63.5 47t85.5 19.5q42 0 88 -18.5t80 -41t78 -41t82 -18.5q29 0 54 10t40.5 24.5t26.5 30t15.5 26.5t4.5 15h88q0 -6 -6.5 -25.5t-24.5 -49.5t-42.5 -57t-66.5 -46.5t-91 -19.5q-45 0 -94 18.5t-84 40.5t-76.5 40.5t-73.5 18.5 q-27 0 -50.5 -12t-37.5 -28.5t-24.5 -34.5t-14.5 -29.5t-4 -13.5h-88z" />
<glyph unicode="&#xa1;" horiz-adv-x="499" d="M180 997h139v-1001h-139v1001zM180 1464h139v-229h-139v229z" />
<glyph unicode="&#xa2;" horiz-adv-x="1161" d="M647 -246h-76v228q-135 11 -246 93t-171 202.5t-60 250.5q0 103 34 199t94.5 171.5t151 125t197.5 59.5v238h76v-238q294 -9 416 -252l-133 -43q-44 81 -118 123t-165 47v-854q89 5 180 56.5t113 124.5l135 -41q-31 -83 -106.5 -145.5t-159 -90.5t-162.5 -28v-226z M238 528q0 -154 94.5 -274t238.5 -143v843q-101 -10 -179 -75t-116 -157t-38 -194z" />
<glyph unicode="&#xa3;" horiz-adv-x="1034" d="M109 651v111h192q-13 26 -45 83.5t-48 90t-31 82.5t-15 96q0 146 109.5 248t263.5 102q110 0 209 -57.5t161 -157.5l-82 -86q-50 85 -129 135t-164 50q-100 0 -168.5 -70.5t-68.5 -171.5q0 -54 20.5 -107.5t62 -126.5t58.5 -110h365v-111h-324q17 -66 17 -123 q0 -104 -47.5 -198t-165.5 -219q77 18 151 18q60 0 152 -18.5t139 -18.5q72 0 182 37l35 -106q-111 -54 -223 -54q-61 0 -169.5 24.5t-172.5 24.5q-102 0 -221 -34l-37 102q140 139 197 236.5t57 197.5q0 59 -21 131h-239z" />
<glyph unicode="&#xa5;" horiz-adv-x="1388" d="M1329 1454l-442 -704h172v-99h-228l-67 -110v-56h297v-98h-297v-387h-143v387h-293v98h293v60l-64 106h-229v99h176l-443 704h156l475 -782l479 782h158z" />
<glyph unicode="&#xa6;" horiz-adv-x="464" d="M172 567h121v-833h-121v833zM172 1587h121v-833h-121v833z" />
<glyph unicode="&#xa7;" horiz-adv-x="1048" d="M858 399q94 -58 94 -209q0 -93 -38 -166.5t-100.5 -116.5t-133.5 -65t-145 -22q-121 0 -225 54t-177 132l90 86q148 -139 303 -139q114 0 198.5 61.5t84.5 169.5q0 46 -18 79.5t-41.5 51.5t-64 30t-66.5 15.5t-68 6.5q-399 36 -399 325q0 114 53 182q-45 32 -75 96.5 t-30 139.5q0 154 122 254t292 100q122 0 214.5 -54t150.5 -140l-109 -51q-31 60 -103.5 89t-152.5 29q-115 0 -194.5 -60.5t-79.5 -170.5q0 -38 11.5 -69t28 -51.5t43 -35.5t48 -23t52.5 -13t47 -6.5t40 -2.5q68 -4 126 -15.5t111.5 -35t91 -58t59.5 -86.5t22 -118 q0 -124 -62 -193zM287 674q0 -58 24 -98.5t60.5 -59.5t87 -31t96 -16t95 -11t77.5 -18q28 22 43.5 62.5t15.5 85.5q0 56 -25 97t-67.5 62.5t-86 31.5t-93.5 12q-42 1 -62 2.5t-52 7.5t-62 18q-51 -48 -51 -145z" />
<glyph unicode="&#xa8;" horiz-adv-x="673" d="M244 1296h-119v193h119v-193zM549 1296h-119v193h119v-193z" />
<glyph unicode="&#xa9;" horiz-adv-x="1716" d="M856 -14q-160 0 -299.5 56.5t-239 154.5t-156.5 235.5t-57 294.5q0 156 57 293t156.5 234.5t239 153.5t299.5 56q214 0 387 -95.5t271 -264.5t98 -377q0 -157 -57.5 -294.5t-157.5 -235.5t-240.5 -154.5t-300.5 -56.5zM856 53q191 0 347 84t246.5 237.5t90.5 348.5 q0 143 -52 268t-142.5 214.5t-217.5 140.5t-272 51q-192 0 -348 -87t-245 -241t-89 -344q0 -189 88.5 -343t244.5 -241.5t349 -87.5zM870 252q-125 0 -233 57.5t-176 167.5t-68 250q0 70 18 138t55.5 129.5t91.5 108.5t132 75t170 28q136 0 241 -59.5t150 -167.5l-133 -43 q-37 81 -109.5 114t-148.5 33q-78 0 -141.5 -31t-102 -82.5t-59 -114t-20.5 -128.5q0 -81 30 -149.5t78.5 -112t105.5 -68t113 -24.5q80 0 158 43t111 112l135 -39q-34 -87 -144 -162t-254 -75z" />
<glyph unicode="&#xaa;" horiz-adv-x="888" d="M340 709q-103 0 -173.5 65t-70.5 160q0 98 85.5 160.5t219.5 62.5q125 0 209 -37v58q0 88 -52 139t-144 51q-106 0 -234 -84l-41 76q143 94 285 94q144 0 225.5 -76t81.5 -213v-293q0 -42 39 -45v-106q-36 -4 -47 -4q-40 0 -66.5 20.5t-27.5 53.5l-2 51 q-51 -64 -125.5 -98.5t-161.5 -34.5zM373 801q87 0 162 44.5t75 96.5v107q-73 32 -188 32q-94 0 -152.5 -38t-58.5 -101q0 -60 46.5 -100.5t115.5 -40.5z" />
<glyph unicode="&#xab;" horiz-adv-x="1183" d="M90 489v76l510 365v-121l-395 -279l395 -274v-121zM543 489v76l508 365v-121l-394 -279l394 -274v-121z" />
<glyph unicode="&#xac;" horiz-adv-x="1206" d="M162 745h899v-487h-123v360h-776v127z" />
<glyph unicode="&#xad;" horiz-adv-x="1167" d="M1034 494h-899v129h899v-129z" />
<glyph unicode="&#xae;" horiz-adv-x="1716" d="M856 -14q-160 0 -299.5 56.5t-239 154.5t-156.5 235.5t-57 294.5q0 156 57 293t156.5 234.5t239 153.5t299.5 56q214 0 387 -95.5t271 -264.5t98 -377q0 -157 -57.5 -294.5t-157.5 -235.5t-240.5 -154.5t-300.5 -56.5zM856 51q191 0 346.5 84t245.5 238.5t90 351.5 q0 189 -88 343t-244 241.5t-350 87.5q-192 0 -347.5 -87.5t-243 -241t-87.5 -341.5q0 -190 87.5 -345t242.5 -243t348 -88zM545 260v928h391q116 0 195 -90.5t79 -202.5q0 -101 -58 -179.5t-151 -97.5l228 -358h-119l-217 344h-242v-344h-106zM651 698h285q81 0 125.5 55 t44.5 142q0 85 -50.5 140t-127.5 55h-277v-392z" />
<glyph unicode="&#xaf;" horiz-adv-x="811" d="M702 1358h-591v96h591v-96z" />
<glyph unicode="&#xb0;" horiz-adv-x="546" d="M102 1315q0 70 49.5 119t120.5 49q72 0 121 -48.5t49 -119.5q0 -73 -49 -122.5t-121 -49.5q-71 0 -120.5 49.5t-49.5 122.5zM209 1376q-27 -27 -27 -63q0 -37 27 -64q26 -26 63 -26q40 0 66 26q24 27 24 64q0 36 -24 63t-66 27q-39 0 -63 -27z" />
<glyph unicode="&#xb1;" horiz-adv-x="942" d="M803 125h-662v117h662v-117zM535 805h268v-117h-268v-287h-127v287h-267v117h267v287h127v-287z" />
<glyph unicode="&#xb2;" horiz-adv-x="798" d="M707 670h-631q0 104 28.5 175.5t83 117t146.5 81.5q17 7 63 23.5t67 25t55.5 27t51 35.5t30 43t13.5 57q0 66 -54 109t-154 43q-158 0 -261 -113l-61 64q10 15 33.5 35t64 45t103.5 42t133 17q143 0 221 -67.5t78 -172.5q0 -34 -9.5 -64t-23 -51.5t-36.5 -41.5t-42 -32 t-48 -25t-47 -19t-46 -15t-37 -12q-121 -41 -169 -101.5t-48 -137.5h496v-88z" />
<glyph unicode="&#xb3;" horiz-adv-x="802" d="M391 657q-128 0 -215 50t-102 133l55 59q6 -55 81 -102t181 -47q102 0 170 40t68 105q0 71 -82 111.5t-223 40.5h-48v83h48q131 0 203.5 34.5t72.5 101.5q0 66 -63 106.5t-154 40.5q-82 0 -144 -31t-94 -84l-63 70q36 59 119.5 94t181.5 35q135 0 225 -64t90 -161 q0 -142 -186 -180q96 -13 153.5 -71.5t57.5 -137.5q0 -102 -96.5 -164t-235.5 -62z" />
<glyph unicode="&#xb4;" horiz-adv-x="454" d="M369 1495l-176 -225l-93 35l121 190h148z" />
<glyph unicode="&#xb5;" horiz-adv-x="1224" d="M164 -434v1501h139v-602q0 -183 62.5 -273t189.5 -90q123 0 229.5 80.5t153.5 212.5v672h139v-887q0 -57 51 -57v-123q-40 -6 -59 -6q-47 0 -80 28.5t-33 71.5v148q-57 -112 -170 -187t-237 -75q-96 0 -159.5 47t-92.5 127v-588h-133z" />
<glyph unicode="&#xb6;" horiz-adv-x="1226" d="M74 961q0 232 153 362.5t424 130.5h494v-111h-144v-1507h-122v637h-152v-637h-121v637q-246 3 -389 133.5t-143 354.5zM195 965q0 -180 115.5 -275.5t295.5 -105.5v759q-197 -1 -304 -102t-107 -276zM879 584v759h-152v-759h152z" />
<glyph unicode="&#xb7;" horiz-adv-x="387" d="M254 504h-119v229h119v-229z" />
<glyph unicode="&#xb8;" horiz-adv-x="579" d="M45 -322l35 64q76 -37 180 -37q117 0 117 72q0 73 -103 73q-81 0 -163 -28l116 215l68 -27l-72 -114q30 12 78 12q72 0 114 -32.5t42 -92.5q0 -69 -54 -106t-155 -37q-102 0 -203 38z" />
<glyph unicode="&#xb9;" horiz-adv-x="557" d="M358 760h154v-92h-414v92h166v633q-26 -31 -87.5 -66t-106.5 -35v92q24 0 52.5 11t52.5 27t44.5 32.5t32 28.5t12.5 14h94v-737z" />
<glyph unicode="&#xba;" horiz-adv-x="917" d="M459 709q-161 0 -265 109.5t-104 262.5q0 155 104.5 264t264.5 109t264 -109t104 -264q0 -153 -104 -262.5t-264 -109.5zM213 1079q0 -112 71.5 -189t174.5 -77q102 0 174 79t72 191t-72 188.5t-174 76.5t-174 -78t-72 -191z" />
<glyph unicode="&#xbb;" horiz-adv-x="1183" d="M1092 565v-76l-508 -354v121l393 274l-393 279v121zM639 565v-76l-508 -354v121l395 274l-395 279v121z" />
<glyph unicode="&#xbc;" horiz-adv-x="1699" d="M1503 0h-92v211h-467v86l496 520h63v-516h117v-90h-117v-211zM1413 692l-371 -391h371v391zM383 760h154v-92h-414v92h166v633q-25 -31 -87.5 -66t-107.5 -35v92q38 0 86.5 27.5t77.5 53.5t31 32h94v-737zM346 -8l-72 63l574 697l555 710l72 -61l-570 -696z" />
<glyph unicode="&#xbd;" horiz-adv-x="1779" d="M1692 0h-627q0 154 60 239t192 138q16 6 52 19t55.5 21t49.5 21.5t47 27t34.5 31.5t25.5 40.5t8 48.5q0 66 -53 109.5t-150 43.5q-149 0 -253 -114l-60 65q13 16 34.5 34.5t61.5 44t100.5 42t129.5 16.5q140 0 215.5 -67.5t75.5 -175.5q0 -35 -10.5 -66t-24.5 -52.5 t-41.5 -42.5t-46 -32.5t-54.5 -26t-51 -19.5l-51 -17q-121 -39 -175 -105t-54 -133h510v-90zM389 760h154v-92h-414v92h166v633q-25 -31 -87.5 -66t-107.5 -35v92q38 0 86.5 27.5t77.5 53.5t31 32h94v-737zM279 -8l-72 63l573 697l555 710l72 -61l-569 -696z" />
<glyph unicode="&#xbe;" horiz-adv-x="1732" d="M408 657q-128 0 -215.5 50t-102.5 133l55 59q6 -55 81.5 -102t181.5 -47q102 0 169.5 40t67.5 105q0 71 -82 111.5t-223 40.5h-47v83h47q131 0 203.5 34.5t72.5 101.5q0 66 -63 106.5t-154 40.5q-82 0 -143.5 -31t-93.5 -84l-64 70q36 59 119.5 94t181.5 35 q135 0 225.5 -64t90.5 -161q0 -141 -187 -180q96 -13 153.5 -71.5t57.5 -137.5q0 -102 -96 -164t-235 -62zM1524 0h-92v211h-467v86l495 520h64v-516h116v-90h-116v-211zM1434 692l-371 -391h371v391zM418 -8l-72 63l574 697l555 710l71 -61l-569 -696z" />
<glyph unicode="&#xbf;" horiz-adv-x="966" d="M537 623h118q0 -132 -41.5 -213t-132.5 -136q-16 -10 -57.5 -33t-65.5 -37t-59 -42.5t-54 -55.5t-33.5 -69t-14.5 -90q0 -126 82 -196t196 -70q106 0 195 58.5t135 149.5l96 -61q-56 -123 -173.5 -193.5t-254.5 -70.5q-77 0 -147.5 24.5t-127 71.5t-90.5 123.5t-34 171.5 q0 45 9 85t20.5 68.5t36.5 57.5t42 45.5t54 40.5t54 34t60 33q37 20 57.5 33.5t49 39.5t43.5 54.5t26 74t11 102.5zM532 1036h121v-219h-121v219z" />
<glyph unicode="&#xc0;" horiz-adv-x="1390" d="M182 0h-151l608 1454h117l608 -1454h-154l-188 455h-653zM989 567l-291 719l-299 -719h590zM686 1653l-178 225h145l123 -190z" />
<glyph unicode="&#xc1;" horiz-adv-x="1390" d="M182 0h-151l608 1454h117l608 -1454h-154l-188 455h-653zM989 567l-291 719l-299 -719h590zM887 1878l-176 -225l-93 35l121 190h148z" />
<glyph unicode="&#xc2;" horiz-adv-x="1390" d="M182 0h-151l608 1454h117l608 -1454h-154l-188 455h-653zM989 567l-291 719l-299 -719h590zM522 1661l-78 43l201 174h103l202 -174l-80 -43l-174 129z" />
<glyph unicode="&#xc3;" horiz-adv-x="1390" d="M182 0h-151l608 1454h117l608 -1454h-154l-188 455h-653zM989 567l-291 719l-299 -719h590zM823 1690q-52 0 -99.5 20.5t-87.5 41t-75 20.5q-31 0 -53.5 -13.5t-32 -33t-13 -32.5t-3.5 -20h-86q0 16 8 43t26.5 62.5t58.5 60.5t93 25q48 0 92.5 -21.5t86 -43t83.5 -21.5 q30 0 53 10t34.5 23t18.5 28.5t9 24.5t2 14h86q0 -11 -4.5 -30t-18.5 -47.5t-35 -52.5t-58.5 -41t-84.5 -17z" />
<glyph unicode="&#xc4;" horiz-adv-x="1390" d="M182 0h-151l608 1454h117l608 -1454h-154l-188 455h-653zM989 567l-291 719l-299 -719h590zM604 1679h-119v193h119v-193zM909 1679h-118v193h118v-193z" />
<glyph unicode="&#xc5;" horiz-adv-x="1390" d="M182 0h-151l608 1454h117l608 -1454h-154l-188 455h-653zM989 567l-291 719l-299 -719h590zM545 1745q0 60 42 96.5t109 36.5t109.5 -37t42.5 -96q0 -61 -42.5 -98t-109.5 -37t-109 37t-42 98zM696 1823q-35 0 -58.5 -21.5t-23.5 -56.5q0 -34 23.5 -57t58.5 -23 q33 0 58.5 23t25.5 57q0 35 -24 56.5t-60 21.5z" />
<glyph unicode="&#xc6;" horiz-adv-x="2029" d="M-2 0l936 1454h985v-127h-807v-522h696v-127h-696v-551h825v-127h-964v455h-531l-288 -455h-156zM508 582h455v700z" />
<glyph unicode="&#xc7;" horiz-adv-x="1413" d="M580 -322l34 64q76 -37 181 -37q116 0 116 72q0 73 -102 73q-82 0 -164 -28l90 168q-138 7 -259.5 74.5t-204.5 172t-131 235.5t-48 265q0 133 47 261t132.5 232t219 168t291.5 64q188 0 327.5 -86t209.5 -231l-115 -70q-33 70 -83 121.5t-108 80.5t-117.5 42.5 t-121.5 13.5q-126 0 -230 -53t-170 -139.5t-102 -193t-36 -218.5q0 -119 42 -231t113.5 -196t173.5 -134.5t215 -50.5q86 0 169 27.5t159.5 90t120.5 152.5l119 -61q-42 -98 -129 -173.5t-191 -115.5t-213 -47l-57 -94q30 12 78 12q72 0 113.5 -32.5t41.5 -92.5 q0 -69 -54 -106t-155 -37t-202 38z" />
<glyph unicode="&#xc8;" horiz-adv-x="1255" d="M326 127h835v-127h-977v1454h959v-127h-817v-524h712v-121h-712v-555zM680 1653l-178 225h145l123 -190z" />
<glyph unicode="&#xc9;" horiz-adv-x="1255" d="M881 1878l-176 -225l-93 35l121 190h148zM326 127h835v-127h-977v1454h959v-127h-817v-524h712v-121h-712v-555z" />
<glyph unicode="&#xca;" horiz-adv-x="1255" d="M516 1661l-78 43l201 174h102l203 -174l-80 -43l-174 129zM326 127h835v-127h-977v1454h959v-127h-817v-524h712v-121h-712v-555z" />
<glyph unicode="&#xcb;" horiz-adv-x="1255" d="M598 1679h-119v193h119v-193zM903 1679h-119v193h119v-193zM326 127h835v-127h-977v1454h959v-127h-817v-524h712v-121h-712v-555z" />
<glyph unicode="&#xcc;" horiz-adv-x="509" d="M326 0h-142v1452h142v-1452zM242 1653l-179 225h146l123 -190z" />
<glyph unicode="&#xcd;" horiz-adv-x="509" d="M326 0h-142v1452h142v-1452zM444 1878l-176 -225l-92 35l121 190h147z" />
<glyph unicode="&#xce;" horiz-adv-x="509" d="M326 0h-142v1452h142v-1452zM80 1661l-78 43l201 174h102l203 -174l-80 -43l-174 129z" />
<glyph unicode="&#xcf;" horiz-adv-x="509" d="M326 0h-142v1452h142v-1452zM162 1679h-119v193h119v-193zM467 1679h-119v193h119v-193z" />
<glyph unicode="&#xd0;" horiz-adv-x="1480" d="M686 0h-491v676h-125v110h125v668h491q136 0 250.5 -37t196 -103t138 -157t84 -199t27.5 -229q0 -331 -189 -530t-507 -199zM1239 729q0 267 -146.5 432.5t-406.5 165.5h-350v-541h350v-110h-350v-549h350q133 0 239 46t174 127t104 190.5t36 238.5z" />
<glyph unicode="&#xd1;" horiz-adv-x="1583" d="M1276 0l-950 1188v-1188h-142v1454h111l962 -1210v1208h142v-1452h-123zM924 1690q-52 0 -99.5 20.5t-87.5 41t-75 20.5q-31 0 -53.5 -13.5t-32 -32.5t-13.5 -32.5t-4 -20.5h-86q0 16 8 43t26.5 62.5t58.5 60.5t93 25q48 0 92.5 -21.5t86.5 -43t84 -21.5q30 0 52.5 10 t34 23t19 28.5t9 24.5t1.5 14h86q0 -15 -8.5 -41.5t-28.5 -61.5t-62.5 -60t-100.5 -25z" />
<glyph unicode="&#xd2;" d="M774 -10q-148 0 -277.5 63t-217 166t-137.5 235.5t-50 272.5q0 144 53 278.5t142.5 235.5t218 162t270.5 61q118 0 226 -41.5t189.5 -113.5t142 -166t91.5 -201.5t31 -216.5q0 -144 -52.5 -278t-142 -235t-217.5 -161.5t-270 -60.5zM236 727q0 -158 67 -296.5t192 -225 t279 -86.5q120 0 223 53t171 139t106.5 194.5t38.5 221.5q0 158 -68 296t-193 224t-278 86q-120 0 -223 -52.5t-170.5 -138t-106 -194t-38.5 -221.5zM764 1653l-178 225h145l123 -190z" />
<glyph unicode="&#xd3;" d="M965 1878l-177 -225l-92 35l121 190h148zM774 -10q-148 0 -277.5 63t-217 166t-137.5 235.5t-50 272.5q0 144 53 278.5t142.5 235.5t218 162t270.5 61q118 0 226 -41.5t189.5 -113.5t142 -166t91.5 -201.5t31 -216.5q0 -144 -52.5 -278t-142 -235t-217.5 -161.5 t-270 -60.5zM236 727q0 -158 67 -296.5t192 -225t279 -86.5q120 0 223 53t171 139t106.5 194.5t38.5 221.5q0 158 -68 296t-193 224t-278 86q-120 0 -223 -52.5t-170.5 -138t-106 -194t-38.5 -221.5z" />
<glyph unicode="&#xd4;" d="M602 1661l-78 43l201 174h102l203 -174l-80 -43l-174 129zM774 -10q-148 0 -277.5 63t-217 166t-137.5 235.5t-50 272.5q0 144 53 278.5t142.5 235.5t218 162t270.5 61q118 0 226 -41.5t189.5 -113.5t142 -166t91.5 -201.5t31 -216.5q0 -144 -52.5 -278t-142 -235 t-217.5 -161.5t-270 -60.5zM236 727q0 -158 67 -296.5t192 -225t279 -86.5q120 0 223 53t171 139t106.5 194.5t38.5 221.5q0 158 -68 296t-193 224t-278 86q-120 0 -223 -52.5t-170.5 -138t-106 -194t-38.5 -221.5z" />
<glyph unicode="&#xd5;" d="M774 -10q-148 0 -277.5 63t-217 166t-137.5 235.5t-50 272.5q0 144 53 278.5t142.5 235.5t218 162t270.5 61q118 0 226 -41.5t189.5 -113.5t142 -166t91.5 -201.5t31 -216.5q0 -144 -52.5 -278t-142 -235t-217.5 -161.5t-270 -60.5zM236 727q0 -158 67 -296.5t192 -225 t279 -86.5q120 0 223 53t171 139t106.5 194.5t38.5 221.5q0 158 -68 296t-193 224t-278 86q-120 0 -223 -52.5t-170.5 -138t-106 -194t-38.5 -221.5zM903 1690q-52 0 -99.5 20.5t-87.5 41t-75 20.5q-31 0 -53.5 -13.5t-32 -33t-13 -32.5t-3.5 -20h-86q0 16 8 43t26.5 62.5 t58.5 60.5t93 25q48 0 92.5 -21.5t86 -43t83.5 -21.5q30 0 53 10t34.5 23t18.5 28.5t9 24.5t2 14h86q0 -11 -4.5 -30t-18.5 -47.5t-35 -52.5t-58.5 -41t-84.5 -17z" />
<glyph unicode="&#xd6;" d="M682 1679h-119v193h119v-193zM987 1679h-119v193h119v-193zM774 -10q-148 0 -277.5 63t-217 166t-137.5 235.5t-50 272.5q0 144 53 278.5t142.5 235.5t218 162t270.5 61q118 0 226 -41.5t189.5 -113.5t142 -166t91.5 -201.5t31 -216.5q0 -144 -52.5 -278t-142 -235 t-217.5 -161.5t-270 -60.5zM236 727q0 -158 67 -296.5t192 -225t279 -86.5q120 0 223 53t171 139t106.5 194.5t38.5 221.5q0 158 -68 296t-193 224t-278 86q-120 0 -223 -52.5t-170.5 -138t-106 -194t-38.5 -221.5z" />
<glyph unicode="&#xd7;" horiz-adv-x="946" d="M561 557l250 -248l-90 -88l-248 248l-250 -248l-88 90l248 246l-246 248l90 88l246 -246l246 248l88 -90z" />
<glyph unicode="&#xd8;" d="M1178 1454h159l-116 -174q110 -107 172.5 -254t62.5 -301q0 -144 -52.5 -278t-142 -235t-217.5 -161.5t-270 -60.5q-190 0 -346 100l-59 -90h-158l115 172q-110 106 -172 252t-62 303q0 144 53 278.5t142.5 235.5t218 162t270.5 61q183 0 340 -100zM1313 727 q0 123 -44.5 237.5t-123.5 200.5l-643 -964q125 -82 272 -82q120 0 223 53t171 139t106.5 194.5t38.5 221.5zM236 727q0 -125 43 -240t122 -202l641 966q-125 82 -268 82q-120 0 -223 -52.5t-170.5 -138t-106 -194t-38.5 -221.5z" />
<glyph unicode="&#xd9;" horiz-adv-x="1546" d="M772 119q107 0 190.5 34.5t135.5 91.5t85.5 136.5t46.5 162.5t13 177v733h143v-733q0 -121 -20.5 -226.5t-67 -199.5t-116 -160.5t-174 -105.5t-234.5 -39q-135 0 -241 41t-174.5 109t-114 163.5t-64 198.5t-18.5 219v733h141v-733q0 -96 14 -180t48 -163t86 -135.5 t134 -90t187 -33.5zM762 1653l-178 225h145l123 -190z" />
<glyph unicode="&#xda;" horiz-adv-x="1546" d="M963 1878l-177 -225l-92 35l121 190h148zM772 119q107 0 190.5 34.5t135.5 91.5t85.5 136.5t46.5 162.5t13 177v733h143v-733q0 -121 -20.5 -226.5t-67 -199.5t-116 -160.5t-174 -105.5t-234.5 -39q-135 0 -241 41t-174.5 109t-114 163.5t-64 198.5t-18.5 219v733h141 v-733q0 -96 14 -180t48 -163t86 -135.5t134 -90t187 -33.5z" />
<glyph unicode="&#xdb;" horiz-adv-x="1546" d="M600 1661l-78 43l201 174h102l203 -174l-80 -43l-174 129zM772 119q107 0 190.5 34.5t135.5 91.5t85.5 136.5t46.5 162.5t13 177v733h143v-733q0 -121 -20.5 -226.5t-67 -199.5t-116 -160.5t-174 -105.5t-234.5 -39q-135 0 -241 41t-174.5 109t-114 163.5t-64 198.5 t-18.5 219v733h141v-733q0 -96 14 -180t48 -163t86 -135.5t134 -90t187 -33.5z" />
<glyph unicode="&#xdc;" horiz-adv-x="1546" d="M682 1679h-119v193h119v-193zM987 1679h-119v193h119v-193zM772 119q107 0 190.5 34.5t135.5 91.5t85.5 136.5t46.5 162.5t13 177v733h143v-733q0 -121 -20.5 -226.5t-67 -199.5t-116 -160.5t-174 -105.5t-234.5 -39q-135 0 -241 41t-174.5 109t-114 163.5t-64 198.5 t-18.5 219v733h141v-733q0 -96 14 -180t48 -163t86 -135.5t134 -90t187 -33.5z" />
<glyph unicode="&#xdd;" horiz-adv-x="1298" d="M16 1454h156l477 -782l479 782h156l-565 -913v-541h-141v545zM838 1878l-176 -225l-93 35l121 190h148z" />
<glyph unicode="&#xde;" horiz-adv-x="1241" d="M748 1165q121 0 221.5 -67t155.5 -171.5t55 -217.5q0 -120 -52 -224.5t-149.5 -170.5t-218.5 -66h-434v-248h-142v1454h142v-289h422zM756 377q124 0 202 99t78 233q0 133 -87 231t-208 98h-415v-661h430z" />
<glyph unicode="&#xdf;" horiz-adv-x="1128" d="M483 -12v129q197 3 308.5 82t111.5 233q0 144 -94.5 233t-247.5 89h-37v127h35q109 0 179.5 65.5t70.5 167.5q0 105 -73 165t-181 60q-130 0 -201 -86t-71 -219v-1034h-133v1055q0 181 115 294t294 113q164 0 273.5 -92t109.5 -235q0 -108 -63.5 -198t-153.5 -112 q150 -32 236 -141t86 -260q0 -203 -152 -315.5t-412 -120.5z" />
<glyph unicode="&#xe0;" horiz-adv-x="1122" d="M432 -20q-161 0 -263.5 95t-102.5 230q0 148 124.5 238t325.5 90q175 0 313 -55v96q0 141 -81 224t-218 83q-163 0 -344 -127l-49 92q207 139 408 139q195 0 309.5 -113t114.5 -310v-482q0 -57 49 -57v-123q-46 -4 -55 -4q-44 0 -77 25.5t-36 72.5l-4 84 q-68 -92 -182 -145t-232 -53zM467 86q94 0 185 41t143 109q34 47 34 79v174q-147 56 -292 56q-151 0 -243.5 -61.5t-92.5 -166.5q0 -93 70 -162t196 -69zM526 1270l-178 225h146l122 -190z" />
<glyph unicode="&#xe1;" horiz-adv-x="1122" d="M432 -20q-161 0 -263.5 95t-102.5 230q0 148 124.5 238t325.5 90q175 0 313 -55v96q0 141 -81 224t-218 83q-163 0 -344 -127l-49 92q207 139 408 139q195 0 309.5 -113t114.5 -310v-482q0 -57 49 -57v-123q-46 -4 -55 -4q-44 0 -77 25.5t-36 72.5l-4 84 q-68 -92 -182 -145t-232 -53zM467 86q94 0 185 41t143 109q34 47 34 79v174q-147 56 -292 56q-151 0 -243.5 -61.5t-92.5 -166.5q0 -93 70 -162t196 -69zM727 1495l-176 -225l-92 35l121 190h147z" />
<glyph unicode="&#xe2;" horiz-adv-x="1122" d="M432 -20q-161 0 -263.5 95t-102.5 230q0 148 124.5 238t325.5 90q175 0 313 -55v96q0 141 -81 224t-218 83q-163 0 -344 -127l-49 92q207 139 408 139q195 0 309.5 -113t114.5 -310v-482q0 -57 49 -57v-123q-46 -4 -55 -4q-44 0 -77 25.5t-36 72.5l-4 84 q-68 -92 -182 -145t-232 -53zM467 86q94 0 185 41t143 109q34 47 34 79v174q-147 56 -292 56q-151 0 -243.5 -61.5t-92.5 -166.5q0 -93 70 -162t196 -69zM365 1278l-78 43l200 174h103l203 -174l-80 -43l-174 129z" />
<glyph unicode="&#xe3;" horiz-adv-x="1122" d="M432 -20q-161 0 -263.5 95t-102.5 230q0 148 124.5 238t325.5 90q175 0 313 -55v96q0 141 -81 224t-218 83q-163 0 -344 -127l-49 92q207 139 408 139q195 0 309.5 -113t114.5 -310v-482q0 -57 49 -57v-123q-46 -4 -55 -4q-44 0 -77 25.5t-36 72.5l-4 84 q-68 -92 -182 -145t-232 -53zM467 86q94 0 185 41t143 109q34 47 34 79v174q-147 56 -292 56q-151 0 -243.5 -61.5t-92.5 -166.5q0 -93 70 -162t196 -69zM666 1307q-52 0 -99.5 20.5t-88 41t-75.5 20.5q-31 0 -53.5 -13.5t-32 -33t-13 -32.5t-3.5 -20h-86q0 16 8 43 t26.5 62.5t58.5 60.5t93 25q48 0 92.5 -21.5t86.5 -43t84 -21.5q30 0 52.5 10t34 23t19 28.5t9 24.5t1.5 14h86q0 -15 -8.5 -41.5t-28.5 -61.5t-62.5 -60t-100.5 -25z" />
<glyph unicode="&#xe4;" horiz-adv-x="1122" d="M432 -20q-161 0 -263.5 95t-102.5 230q0 148 124.5 238t325.5 90q175 0 313 -55v96q0 141 -81 224t-218 83q-163 0 -344 -127l-49 92q207 139 408 139q195 0 309.5 -113t114.5 -310v-482q0 -57 49 -57v-123q-46 -4 -55 -4q-44 0 -77 25.5t-36 72.5l-4 84 q-68 -92 -182 -145t-232 -53zM467 86q94 0 185 41t143 109q34 47 34 79v174q-147 56 -292 56q-151 0 -243.5 -61.5t-92.5 -166.5q0 -93 70 -162t196 -69zM444 1296h-118v193h118v-193zM750 1296h-119v193h119v-193z" />
<glyph unicode="&#xe5;" horiz-adv-x="1122" d="M432 -20q-161 0 -263.5 95t-102.5 230q0 148 124.5 238t325.5 90q175 0 313 -55v96q0 141 -81 224t-218 83q-163 0 -344 -127l-49 92q207 139 408 139q195 0 309.5 -113t114.5 -310v-482q0 -57 49 -57v-123q-46 -4 -55 -4q-44 0 -77 25.5t-36 72.5l-4 84 q-68 -92 -182 -145t-232 -53zM467 86q94 0 185 41t143 109q34 47 34 79v174q-147 56 -292 56q-151 0 -243.5 -61.5t-92.5 -166.5q0 -93 70 -162t196 -69zM385 1362q0 59 42.5 96t109.5 37t109 -36.5t42 -96.5q0 -61 -42 -98t-109 -37t-109.5 37t-42.5 98zM537 1440 q-35 0 -58.5 -21.5t-23.5 -56.5q0 -34 23.5 -57t58.5 -23q33 0 58.5 23t25.5 57q0 35 -24 56.5t-60 21.5z" />
<glyph unicode="&#xe6;" horiz-adv-x="1908" d="M422 -20q-149 0 -250.5 95.5t-101.5 235.5q0 141 124 231.5t320 90.5q143 0 274 -41q7 90 35 156q-19 109 -96.5 171t-198.5 62q-156 0 -340 -127l-49 92q207 139 402 139q131 0 225.5 -55.5t142.5 -157.5q70 98 176 155.5t232 57.5q152 0 274.5 -75t189.5 -201t68 -277 q0 -41 -2 -49h-927q13 -171 130.5 -284t278.5 -113q106 0 199 54t129 139l121 -33q-50 -118 -175.5 -192t-279.5 -74q-137 0 -252 63.5t-186 171.5q-44 -79 -124.5 -134t-166 -78t-172.5 -23zM455 86q108 0 200 41t140 109q33 33 36 71q-39 77 -43 197q-121 41 -256 41 q-148 0 -239.5 -61.5t-91.5 -161.5q0 -99 74 -167.5t180 -68.5zM920 578h796q-12 175 -125 287t-276 112t-274.5 -113t-120.5 -286z" />
<glyph unicode="&#xe7;" horiz-adv-x="1130" d="M424 -322l35 64q76 -37 180 -37q117 0 117 72q0 73 -103 73q-82 0 -164 -28l86 160q-213 15 -353 175.5t-140 379.5q0 151 67 276t190 198.5t277 73.5q149 0 263 -68t172 -186l-136 -43q-44 82 -125 128.5t-178 46.5q-164 0 -275.5 -122t-111.5 -304q0 -181 114.5 -308 t274.5 -127q101 0 194 54.5t118 128.5l135 -41q-41 -109 -153 -181t-253 -81l-53 -86q30 12 78 12q72 0 114 -32.5t42 -92.5q0 -69 -54 -106t-155 -37q-102 0 -203 38z" />
<glyph unicode="&#xe8;" horiz-adv-x="1202" d="M616 -20q-152 0 -275.5 76t-192 203t-68.5 278q0 148 68.5 273.5t191.5 200t274 74.5t273 -75.5t188.5 -200t67.5 -270.5q0 -40 -4 -56h-912q12 -171 125.5 -284t268.5 -113q107 0 199 53.5t128 139.5l121 -33q-50 -118 -175 -192t-278 -74zM223 590h787 q-13 169 -125.5 278t-270.5 109t-269.5 -109.5t-121.5 -277.5zM596 1270l-178 225h145l123 -190z" />
<glyph unicode="&#xe9;" horiz-adv-x="1202" d="M797 1495l-176 -225l-93 35l121 190h148zM616 -20q-152 0 -275.5 76t-192 203t-68.5 278q0 148 68.5 273.5t191.5 200t274 74.5t273 -75.5t188.5 -200t67.5 -270.5q0 -40 -4 -56h-912q12 -171 125.5 -284t268.5 -113q107 0 199 53.5t128 139.5l121 -33 q-50 -118 -175 -192t-278 -74zM223 590h787q-13 169 -125.5 278t-270.5 109t-269.5 -109.5t-121.5 -277.5z" />
<glyph unicode="&#xea;" horiz-adv-x="1202" d="M434 1278l-78 43l201 174h102l203 -174l-80 -43l-174 129zM616 -20q-152 0 -275.5 76t-192 203t-68.5 278q0 148 68.5 273.5t191.5 200t274 74.5t273 -75.5t188.5 -200t67.5 -270.5q0 -40 -4 -56h-912q12 -171 125.5 -284t268.5 -113q107 0 199 53.5t128 139.5l121 -33 q-50 -118 -175 -192t-278 -74zM223 590h787q-13 169 -125.5 278t-270.5 109t-269.5 -109.5t-121.5 -277.5z" />
<glyph unicode="&#xeb;" horiz-adv-x="1202" d="M516 1296h-119v193h119v-193zM821 1296h-119v193h119v-193zM616 -20q-152 0 -275.5 76t-192 203t-68.5 278q0 148 68.5 273.5t191.5 200t274 74.5t273 -75.5t188.5 -200t67.5 -270.5q0 -40 -4 -56h-912q12 -171 125.5 -284t268.5 -113q107 0 199 53.5t128 139.5l121 -33 q-50 -118 -175 -192t-278 -74zM223 590h787q-13 169 -125.5 278t-270.5 109t-269.5 -109.5t-121.5 -277.5z" />
<glyph unicode="&#xec;" horiz-adv-x="438" d="M289 0h-139v1067h139v-1067zM207 1270l-178 225h145l123 -190z" />
<glyph unicode="&#xed;" horiz-adv-x="438" d="M408 1495l-177 -225l-92 35l121 190h148zM289 0h-139v1067h139v-1067z" />
<glyph unicode="&#xee;" horiz-adv-x="438" d="M45 1278l-78 43l201 174h102l203 -174l-80 -43l-174 129zM289 0h-139v1067h139v-1067z" />
<glyph unicode="&#xef;" horiz-adv-x="438" d="M127 1296h-119v193h119v-193zM432 1296h-119v193h119v-193zM289 0h-139v1067h139v-1067z" />
<glyph unicode="&#xf0;" horiz-adv-x="1234" d="M969 1460l45 -61l-170 -105q301 -298 301 -727q0 -129 -43.5 -240t-117 -186t-171.5 -118t-207 -43q-106 0 -202.5 39t-166.5 105.5t-111.5 158.5t-41.5 194q0 132 67.5 246t183.5 181t251 67q134 0 246.5 -66t168.5 -174q-22 142 -82.5 267t-181.5 243l-227 -143l-45 63 l215 133q-112 97 -293 201h197q112 -68 204 -147zM227 475q0 -155 111.5 -264t271.5 -109q162 0 276.5 116.5t114.5 275.5q0 151 -113 255.5t-272 104.5q-161 0 -275 -111t-114 -268z" />
<glyph unicode="&#xf1;" horiz-adv-x="1185" d="M1047 625v-625h-140v596q0 188 -55 275t-172 87q-126 0 -239 -87t-152 -218v-653h-139v1067h126v-242q65 117 188.5 188.5t264.5 71.5q88 0 150.5 -31.5t99 -93.5t52.5 -144t16 -191zM729 1307q-52 0 -99.5 20.5t-87.5 41t-75 20.5q-31 0 -53.5 -13.5t-32 -33t-13 -32.5 t-3.5 -20h-86q0 16 8 43t26.5 62.5t58.5 60.5t93 25q48 0 92.5 -21.5t86 -43t83.5 -21.5q30 0 53 10t34.5 23t18.5 28.5t9 24.5t2 14h86q0 -11 -4.5 -30t-18.5 -47.5t-35 -52.5t-58.5 -41t-84.5 -17z" />
<glyph unicode="&#xf2;" horiz-adv-x="1218" d="M610 -20q-114 0 -213.5 44.5t-168.5 119t-108.5 175.5t-39.5 211q0 148 68 275.5t190.5 203.5t271.5 76t271.5 -76t191 -203.5t68.5 -275.5t-68 -273.5t-190.5 -201t-272.5 -75.5zM223 528q0 -178 112.5 -302t272.5 -124t274.5 126t114.5 304t-114 304.5t-273 126.5 q-160 0 -273.5 -127.5t-113.5 -307.5zM598 1270l-178 225h145l123 -190z" />
<glyph unicode="&#xf3;" horiz-adv-x="1218" d="M799 1495l-176 -225l-93 35l121 190h148zM610 -20q-114 0 -213.5 44.5t-168.5 119t-108.5 175.5t-39.5 211q0 148 68 275.5t190.5 203.5t271.5 76t271.5 -76t191 -203.5t68.5 -275.5t-68 -273.5t-190.5 -201t-272.5 -75.5zM223 528q0 -178 112.5 -302t272.5 -124 t274.5 126t114.5 304t-114 304.5t-273 126.5q-160 0 -273.5 -127.5t-113.5 -307.5z" />
<glyph unicode="&#xf4;" horiz-adv-x="1218" d="M434 1278l-78 43l201 174h102l203 -174l-80 -43l-174 129zM610 -20q-114 0 -213.5 44.5t-168.5 119t-108.5 175.5t-39.5 211q0 148 68 275.5t190.5 203.5t271.5 76t271.5 -76t191 -203.5t68.5 -275.5t-68 -273.5t-190.5 -201t-272.5 -75.5zM223 528q0 -178 112.5 -302 t272.5 -124t274.5 126t114.5 304t-114 304.5t-273 126.5q-160 0 -273.5 -127.5t-113.5 -307.5z" />
<glyph unicode="&#xf5;" horiz-adv-x="1218" d="M610 -20q-114 0 -213.5 44.5t-168.5 119t-108.5 175.5t-39.5 211q0 148 68 275.5t190.5 203.5t271.5 76t271.5 -76t191 -203.5t68.5 -275.5t-68 -273.5t-190.5 -201t-272.5 -75.5zM223 528q0 -178 112.5 -302t272.5 -124t274.5 126t114.5 304t-114 304.5t-273 126.5 q-160 0 -273.5 -127.5t-113.5 -307.5zM737 1307q-52 0 -99.5 20.5t-87.5 41t-75 20.5q-31 0 -53.5 -13.5t-32 -33t-13 -32.5t-3.5 -20h-86q0 16 8 43t26.5 62.5t58.5 60.5t93 25q48 0 92.5 -21.5t86 -43t83.5 -21.5q30 0 53 10t34.5 23t18.5 28.5t9 24.5t2 14h86 q0 -11 -4.5 -30t-18.5 -47.5t-35 -52.5t-58.5 -41t-84.5 -17z" />
<glyph unicode="&#xf6;" horiz-adv-x="1218" d="M516 1296h-119v193h119v-193zM821 1296h-119v193h119v-193zM610 -20q-114 0 -213.5 44.5t-168.5 119t-108.5 175.5t-39.5 211q0 148 68 275.5t190.5 203.5t271.5 76t271.5 -76t191 -203.5t68.5 -275.5t-68 -273.5t-190.5 -201t-272.5 -75.5zM223 528q0 -178 112.5 -302 t272.5 -124t274.5 126t114.5 304t-114 304.5t-273 126.5q-160 0 -273.5 -127.5t-113.5 -307.5z" />
<glyph unicode="&#xf7;" horiz-adv-x="1095" d="M608 817h-121v187h121v-187zM608 152h-121v184h121v-184zM961 520h-826v117h826v-117z" />
<glyph unicode="&#xf8;" horiz-adv-x="1218" d="M190 -2l80 104q-90 77 -140 189t-50 239q0 148 68 275.5t190.5 203.5t271.5 76t275 -77l47 63h96l-82 -110q91 -77 143 -190.5t52 -240.5q0 -148 -68 -273.5t-190.5 -201t-272.5 -75.5q-154 0 -280 77l-45 -59h-95zM223 528q0 -195 129 -321l459 692q-97 64 -201 64 q-160 0 -273.5 -127.5t-113.5 -307.5zM608 102q160 0 274.5 126t114.5 304q0 93 -35 177t-96 145l-458 -690q91 -62 200 -62z" />
<glyph unicode="&#xf9;" horiz-adv-x="1216" d="M479 -20q-167 0 -253.5 116.5t-86.5 343.5v627h140v-602q0 -363 247 -363q125 0 231.5 80t153.5 213v672h140v-887q0 -57 51 -57v-123q-40 -6 -58 -6q-48 0 -81 29t-33 71v148q-70 -124 -190 -193t-261 -69zM580 1270l-179 225h146l123 -190z" />
<glyph unicode="&#xfa;" horiz-adv-x="1216" d="M780 1495l-176 -225l-92 35l121 190h147zM479 -20q-167 0 -253.5 116.5t-86.5 343.5v627h140v-602q0 -363 247 -363q125 0 231.5 80t153.5 213v672h140v-887q0 -57 51 -57v-123q-40 -6 -58 -6q-48 0 -81 29t-33 71v148q-70 -124 -190 -193t-261 -69z" />
<glyph unicode="&#xfb;" horiz-adv-x="1216" d="M418 1278l-78 43l201 174h102l203 -174l-80 -43l-174 129zM479 -20q-167 0 -253.5 116.5t-86.5 343.5v627h140v-602q0 -363 247 -363q125 0 231.5 80t153.5 213v672h140v-887q0 -57 51 -57v-123q-40 -6 -58 -6q-48 0 -81 29t-33 71v148q-70 -124 -190 -193t-261 -69z" />
<glyph unicode="&#xfc;" horiz-adv-x="1216" d="M498 1296h-119v193h119v-193zM803 1296h-119v193h119v-193zM479 -20q-167 0 -253.5 116.5t-86.5 343.5v627h140v-602q0 -363 247 -363q125 0 231.5 80t153.5 213v672h140v-887q0 -57 51 -57v-123q-40 -6 -58 -6q-48 0 -81 29t-33 71v148q-70 -124 -190 -193t-261 -69z " />
<glyph unicode="&#xfd;" horiz-adv-x="1110" d="M211 -453v123q24 -4 41 -4q50 0 78 12q23 9 53 68t109 254l-465 1067h145l395 -938l365 938h133l-555 -1376q-32 -77 -85 -113.5t-144 -36.5q-40 0 -70 6zM756 1495l-176 -225l-93 35l121 190h148z" />
<glyph unicode="&#xfe;" horiz-adv-x="1232" d="M1153 526q-3 -147 -72 -275t-189 -206t-263 -78q-105 0 -197 53.5t-139 131.5v-588h-143v1890h143v-565q141 201 354 201q114 0 211.5 -50.5t160.5 -131.5t98.5 -180.5t35.5 -201.5zM1012 528q0 113 -46 212t-132 161t-193 62q-115 0 -204 -70.5t-144 -179.5v-361 q0 -63 54.5 -124t132 -96.5t147.5 -35.5q108 0 197.5 62t138.5 160.5t49 209.5z" />
<glyph unicode="&#xff;" horiz-adv-x="1110" d="M211 -453v123q24 -4 41 -4q50 0 78 12q23 9 53 68t109 254l-465 1067h145l395 -938l365 938h133l-555 -1376q-32 -77 -85 -113.5t-144 -36.5q-40 0 -70 6zM473 1296h-119v193h119v-193zM778 1296h-119v193h119v-193z" />
<glyph unicode="&#x100;" horiz-adv-x="1390" d="M182 0h-151l608 1454h117l608 -1454h-154l-188 455h-653zM989 567l-291 719l-299 -719h590zM993 1741h-592v96h592v-96z" />
<glyph unicode="&#x101;" horiz-adv-x="1122" d="M432 -20q-161 0 -263.5 95t-102.5 230q0 148 124.5 238t325.5 90q175 0 313 -55v96q0 141 -81 224t-218 83q-163 0 -344 -127l-49 92q207 139 408 139q195 0 309.5 -113t114.5 -310v-482q0 -57 49 -57v-123q-46 -4 -55 -4q-44 0 -77 25.5t-36 72.5l-4 84 q-68 -92 -182 -145t-232 -53zM467 86q94 0 185 41t143 109q34 47 34 79v174q-147 56 -292 56q-151 0 -243.5 -61.5t-92.5 -166.5q0 -93 70 -162t196 -69zM836 1358h-592v96h592v-96z" />
<glyph unicode="&#x102;" horiz-adv-x="1390" d="M182 0h-151l608 1454h117l608 -1454h-154l-188 455h-653zM989 567l-291 719l-299 -719h590zM698 1743q43 0 77 39t40 96h84q0 -87 -58.5 -147t-142.5 -60q-85 0 -142.5 59.5t-57.5 147.5h86q0 -52 35 -93.5t79 -41.5z" />
<glyph unicode="&#x103;" horiz-adv-x="1122" d="M432 -20q-161 0 -263.5 95t-102.5 230q0 148 124.5 238t325.5 90q175 0 313 -55v96q0 141 -81 224t-218 83q-163 0 -344 -127l-49 92q207 139 408 139q195 0 309.5 -113t114.5 -310v-482q0 -57 49 -57v-123q-46 -4 -55 -4q-44 0 -77 25.5t-36 72.5l-4 84 q-68 -92 -182 -145t-232 -53zM467 86q94 0 185 41t143 109q34 47 34 79v174q-147 56 -292 56q-151 0 -243.5 -61.5t-92.5 -166.5q0 -93 70 -162t196 -69zM539 1360q43 0 76.5 39t39.5 96h84q0 -87 -58 -147t-142 -60q-85 0 -143 59.5t-58 147.5h86q0 -52 35.5 -93.5 t79.5 -41.5z" />
<glyph unicode="&#x104;" horiz-adv-x="1390" d="M1264 -358q-74 15 -114 54.5t-40 94.5q0 101 154 209h-54l-188 455h-653l-187 -455h-151l608 1454h117l608 -1454q-90 -57 -129 -101t-39 -89q0 -76 107 -91zM989 567l-291 719l-299 -719h590z" />
<glyph unicode="&#x105;" horiz-adv-x="1122" d="M918 -358q-74 15 -114 54.5t-40 94.5q0 106 158 211q-31 10 -51 33.5t-21 58.5l-4 84q-68 -92 -182 -145t-232 -53q-161 0 -263.5 95t-102.5 230q0 148 124.5 238t325.5 90q175 0 313 -55v96q0 141 -81 224t-218 83q-163 0 -344 -127l-49 92q207 139 408 139 q195 0 309.5 -113t114.5 -310v-482q0 -57 49 -57v-123q-90 -57 -129 -101t-39 -89q0 -76 106 -91zM467 86q94 0 185 41t143 109q34 47 34 79v174q-147 56 -292 56q-151 0 -243.5 -61.5t-92.5 -166.5q0 -93 70 -162t196 -69z" />
<glyph unicode="&#x106;" horiz-adv-x="1411" d="M967 1878l-176 -225l-93 35l121 190h148zM90 737q0 133 47 261t132.5 232t219 168t291.5 64q188 0 327.5 -86t209.5 -231l-115 -70q-33 70 -83 121.5t-108 80.5t-117.5 42.5t-121.5 13.5q-101 0 -189 -34.5t-151.5 -93.5t-109 -136.5t-67.5 -164t-22 -175.5 q0 -160 71 -300.5t197.5 -226t276.5 -85.5q86 0 169 27.5t159.5 90t120.5 152.5l119 -61q-45 -104 -140.5 -182.5t-208.5 -117t-227 -38.5q-116 0 -223 42t-189 115.5t-143 168t-93 204t-32 219.5z" />
<glyph unicode="&#x107;" horiz-adv-x="1126" d="M799 1495l-176 -225l-93 35l121 190h148zM80 537q0 151 67 276t190 198.5t277 73.5q149 0 263 -68t172 -186l-136 -43q-44 82 -125 128.5t-178 46.5q-164 0 -275.5 -122t-111.5 -304q0 -181 114.5 -308t274.5 -127q101 0 194 54.5t118 128.5l135 -41 q-43 -116 -166.5 -190t-276.5 -74q-151 0 -274.5 76t-192.5 203.5t-69 277.5z" />
<glyph unicode="&#x108;" horiz-adv-x="1411" d="M602 1661l-78 43l201 174h102l203 -174l-80 -43l-174 129zM90 737q0 133 47 261t132.5 232t219 168t291.5 64q188 0 327.5 -86t209.5 -231l-115 -70q-33 70 -83 121.5t-108 80.5t-117.5 42.5t-121.5 13.5q-101 0 -189 -34.5t-151.5 -93.5t-109 -136.5t-67.5 -164 t-22 -175.5q0 -160 71 -300.5t197.5 -226t276.5 -85.5q86 0 169 27.5t159.5 90t120.5 152.5l119 -61q-45 -104 -140.5 -182.5t-208.5 -117t-227 -38.5q-116 0 -223 42t-189 115.5t-143 168t-93 204t-32 219.5z" />
<glyph unicode="&#x109;" horiz-adv-x="1126" d="M436 1278l-78 43l201 174h103l202 -174l-80 -43l-174 129zM80 537q0 151 67 276t190 198.5t277 73.5q149 0 263 -68t172 -186l-136 -43q-44 82 -125 128.5t-178 46.5q-164 0 -275.5 -122t-111.5 -304q0 -181 114.5 -308t274.5 -127q101 0 194 54.5t118 128.5l135 -41 q-43 -116 -166.5 -190t-276.5 -74q-151 0 -274.5 76t-192.5 203.5t-69 277.5z" />
<glyph unicode="&#x10a;" horiz-adv-x="1411" d="M90 737q0 133 47 261t132.5 232t219 168t291.5 64q188 0 327.5 -86t209.5 -231l-115 -70q-33 70 -83 121.5t-108 80.5t-117.5 42.5t-121.5 13.5q-101 0 -189 -34.5t-151.5 -93.5t-109 -136.5t-67.5 -164t-22 -175.5q0 -160 71 -300.5t197.5 -226t276.5 -85.5 q86 0 169 27.5t159.5 90t120.5 152.5l119 -61q-45 -104 -140.5 -182.5t-208.5 -117t-227 -38.5q-116 0 -223 42t-189 115.5t-143 168t-93 204t-32 219.5zM840 1679h-127v199h127v-199z" />
<glyph unicode="&#x10b;" horiz-adv-x="1126" d="M80 537q0 151 67 276t190 198.5t277 73.5q149 0 263 -68t172 -186l-136 -43q-44 82 -125 128.5t-178 46.5q-164 0 -275.5 -122t-111.5 -304q0 -181 114.5 -308t274.5 -127q101 0 194 54.5t118 128.5l135 -41q-43 -116 -166.5 -190t-276.5 -74q-151 0 -274.5 76 t-192.5 203.5t-69 277.5zM674 1296h-127v199h127v-199z" />
<glyph unicode="&#x10c;" horiz-adv-x="1411" d="M524 1837l78 41l174 -129l174 129l80 -41l-203 -176h-102zM90 737q0 133 47 261t132.5 232t219 168t291.5 64q188 0 327.5 -86t209.5 -231l-115 -70q-33 70 -83 121.5t-108 80.5t-117.5 42.5t-121.5 13.5q-101 0 -189 -34.5t-151.5 -93.5t-109 -136.5t-67.5 -164 t-22 -175.5q0 -160 71 -300.5t197.5 -226t276.5 -85.5q86 0 169 27.5t159.5 90t120.5 152.5l119 -61q-45 -104 -140.5 -182.5t-208.5 -117t-227 -38.5q-116 0 -223 42t-189 115.5t-143 168t-93 204t-32 219.5z" />
<glyph unicode="&#x10d;" horiz-adv-x="1126" d="M358 1454l78 41l174 -129l174 129l80 -41l-202 -176h-103zM80 537q0 151 67 276t190 198.5t277 73.5q149 0 263 -68t172 -186l-136 -43q-44 82 -125 128.5t-178 46.5q-164 0 -275.5 -122t-111.5 -304q0 -181 114.5 -308t274.5 -127q101 0 194 54.5t118 128.5l135 -41 q-43 -116 -166.5 -190t-276.5 -74q-151 0 -274.5 76t-192.5 203.5t-69 277.5z" />
<glyph unicode="&#x10e;" horiz-adv-x="1470" d="M453 1837l77 41l175 -129l174 129l79 -41l-202 -176h-103zM676 0h-492v1454h492q136 0 250.5 -37t196 -103t138 -157t84 -199t27.5 -229q0 -331 -189 -530t-507 -199zM1229 729q0 267 -146.5 432.5t-406.5 165.5h-350v-1200h350q133 0 239 46t174 127t104 190.5t36 238.5 z" />
<glyph unicode="&#x10f;" horiz-adv-x="1275" d="M1454 1495l-176 -225l-92 35l121 190h147zM592 -20q-108 0 -204.5 45.5t-163.5 121.5t-105.5 176t-38.5 207q0 150 62 276.5t174.5 202.5t250.5 76q128 0 234 -67t172 -174v651h139v-1315q0 -57 49 -57v-123q-35 -6 -55 -6q-50 0 -83.5 29t-33.5 71v113 q-64 -104 -172 -165.5t-225 -61.5zM621 102q111 0 223 80t129 185v329q-41 110 -150.5 188.5t-218.5 78.5q-110 0 -199 -63t-135.5 -161.5t-46.5 -208.5q0 -114 52.5 -212.5t144.5 -157t201 -58.5z" />
<glyph unicode="&#x110;" horiz-adv-x="1480" d="M686 0h-491v676h-125v110h125v668h491q136 0 250.5 -37t196 -103t138 -157t84 -199t27.5 -229q0 -331 -189 -530t-507 -199zM1239 729q0 267 -146.5 432.5t-406.5 165.5h-350v-541h350v-110h-350v-549h350q133 0 239 46t174 127t104 190.5t36 238.5z" />
<glyph unicode="&#x111;" horiz-adv-x="1275" d="M592 -20q-108 0 -204.5 45.5t-163.5 121.5t-105.5 176t-38.5 207q0 150 62 276.5t174.5 202.5t250.5 76q128 0 234 -67t172 -174v420h-236v94h236v137h139v-137h143v-94h-143v-1084q0 -57 49 -57v-123q-35 -6 -55 -6q-50 0 -83.5 29t-33.5 71v113q-64 -104 -172 -165.5 t-225 -61.5zM621 102q111 0 223 80t129 185v329q-41 110 -150.5 188.5t-218.5 78.5q-110 0 -199 -63t-135.5 -161.5t-46.5 -208.5q0 -114 52.5 -212.5t144.5 -157t201 -58.5z" />
<glyph unicode="&#x112;" horiz-adv-x="1255" d="M326 127h835v-127h-977v1454h959v-127h-817v-524h712v-121h-712v-555zM989 1741h-592v96h592v-96z" />
<glyph unicode="&#x113;" horiz-adv-x="1202" d="M616 -20q-152 0 -275.5 76t-192 203t-68.5 278q0 148 68.5 273.5t191.5 200t274 74.5t273 -75.5t188.5 -200t67.5 -270.5q0 -40 -4 -56h-912q12 -171 125.5 -284t268.5 -113q107 0 199 53.5t128 139.5l121 -33q-50 -118 -175 -192t-278 -74zM223 590h787 q-13 169 -125.5 278t-270.5 109t-269.5 -109.5t-121.5 -277.5zM905 1358h-592v96h592v-96z" />
<glyph unicode="&#x114;" horiz-adv-x="1255" d="M326 127h835v-127h-977v1454h959v-127h-817v-524h712v-121h-712v-555zM692 1743q43 0 77 39t40 96h84q0 -87 -58.5 -147t-142.5 -60q-85 0 -142.5 59.5t-57.5 147.5h86q0 -52 35 -93.5t79 -41.5z" />
<glyph unicode="&#x115;" horiz-adv-x="1202" d="M616 -20q-152 0 -275.5 76t-192 203t-68.5 278q0 148 68.5 273.5t191.5 200t274 74.5t273 -75.5t188.5 -200t67.5 -270.5q0 -40 -4 -56h-912q12 -171 125.5 -284t268.5 -113q107 0 199 53.5t128 139.5l121 -33q-50 -118 -175 -192t-278 -74zM223 590h787 q-13 169 -125.5 278t-270.5 109t-269.5 -109.5t-121.5 -277.5zM608 1360q43 0 77 39t40 96h84q0 -87 -58.5 -147t-142.5 -60q-85 0 -142.5 59.5t-57.5 147.5h86q0 -52 35 -93.5t79 -41.5z" />
<glyph unicode="&#x116;" horiz-adv-x="1255" d="M326 127h835v-127h-977v1454h959v-127h-817v-524h712v-121h-712v-555zM754 1679h-127v199h127v-199z" />
<glyph unicode="&#x117;" horiz-adv-x="1202" d="M616 -20q-152 0 -275.5 76t-192 203t-68.5 278q0 148 68.5 273.5t191.5 200t274 74.5t273 -75.5t188.5 -200t67.5 -270.5q0 -40 -4 -56h-912q12 -171 125.5 -284t268.5 -113q107 0 199 53.5t128 139.5l121 -33q-50 -118 -175 -192t-278 -74zM223 590h787 q-13 169 -125.5 278t-270.5 109t-269.5 -109.5t-121.5 -277.5zM672 1296h-127v199h127v-199z" />
<glyph unicode="&#x118;" horiz-adv-x="1255" d="M326 127h835v-127h-428q-90 -57 -129 -101t-39 -89q0 -76 107 -91l-39 -77q-74 15 -114 54.5t-40 94.5q0 101 154 209h-449v1454h959v-127h-817v-524h712v-121h-712v-555z" />
<glyph unicode="&#x119;" horiz-adv-x="1206" d="M600 -371q-74 15 -114 55t-40 95q0 100 144 201q-220 12 -364 172.5t-144 384.5q0 148 68.5 273.5t191.5 200t274 74.5t273 -75.5t188.5 -200t67.5 -270.5q0 -40 -4 -56h-912q12 -171 125.5 -284t268.5 -113q107 0 199 53.5t128 139.5l121 -33q-43 -101 -144.5 -172 t-230.5 -88q-88 -56 -126 -100t-38 -89q0 -75 107 -90zM225 590h787q-13 169 -125.5 278t-270.5 109t-269.5 -109.5t-121.5 -277.5z" />
<glyph unicode="&#x11a;" horiz-adv-x="1255" d="M438 1837l78 41l174 -129l174 129l80 -41l-203 -176h-102zM326 127h835v-127h-977v1454h959v-127h-817v-524h712v-121h-712v-555z" />
<glyph unicode="&#x11b;" horiz-adv-x="1202" d="M356 1454l78 41l174 -129l174 129l80 -41l-203 -176h-102zM616 -20q-152 0 -275.5 76t-192 203t-68.5 278q0 148 68.5 273.5t191.5 200t274 74.5t273 -75.5t188.5 -200t67.5 -270.5q0 -40 -4 -56h-912q12 -171 125.5 -284t268.5 -113q107 0 199 53.5t128 139.5l121 -33 q-50 -118 -175 -192t-278 -74zM223 590h787q-13 169 -125.5 278t-270.5 109t-269.5 -109.5t-121.5 -277.5z" />
<glyph unicode="&#x11c;" horiz-adv-x="1478" d="M588 1661l-78 43l201 174h102l203 -174l-80 -43l-174 129zM1237 0v211q-203 -221 -465 -221q-114 0 -220.5 41t-188.5 113t-144 165t-94.5 201.5t-32.5 218.5q0 145 51 279t138.5 234.5t214 161t268.5 60.5q395 0 555 -317l-111 -74q-137 262 -446 262 q-118 0 -218.5 -51.5t-166.5 -136.5t-103.5 -194.5t-37.5 -225.5q0 -162 71.5 -301.5t197.5 -223t277 -83.5q253 0 455 241v244h-322v111h445v-715h-123z" />
<glyph unicode="&#x11d;" horiz-adv-x="1261" d="M492 1278l-78 43l200 174h103l203 -174l-80 -43l-174 129zM582 -14q-142 0 -258 77.5t-179 201.5t-63 265q0 148 62 274.5t176.5 203.5t257.5 77q244 0 409 -241v223h125v-1071q0 -144 -72 -248.5t-189 -154.5t-263 -50q-174 0 -288 62t-189 180l86 68 q61 -98 164.5 -148.5t226.5 -50.5q166 0 275.5 89t109.5 253v211q-63 -101 -169 -161t-222 -60zM621 102q122 0 227.5 82t124.5 183v329q-46 116 -151 191.5t-220 75.5q-114 0 -202.5 -65.5t-132.5 -163.5t-44 -206q0 -173 116 -299.5t282 -126.5z" />
<glyph unicode="&#x11e;" horiz-adv-x="1478" d="M1237 0v211q-203 -221 -465 -221q-114 0 -220.5 41t-188.5 113t-144 165t-94.5 201.5t-32.5 218.5q0 145 51 279t138.5 234.5t214 161t268.5 60.5q395 0 555 -317l-111 -74q-137 262 -446 262q-118 0 -218.5 -51.5t-166.5 -136.5t-103.5 -194.5t-37.5 -225.5 q0 -162 71.5 -301.5t197.5 -223t277 -83.5q253 0 455 241v244h-322v111h445v-715h-123zM762 1743q43 0 77 39t40 96h84q0 -87 -58.5 -147t-142.5 -60q-85 0 -143 59.5t-58 147.5h86q0 -52 35.5 -93.5t79.5 -41.5z" />
<glyph unicode="&#x11f;" horiz-adv-x="1261" d="M582 -14q-142 0 -258 77.5t-179 201.5t-63 265q0 148 62 274.5t176.5 203.5t257.5 77q244 0 409 -241v223h125v-1071q0 -144 -72 -248.5t-189 -154.5t-263 -50q-174 0 -288 62t-189 180l86 68q61 -98 164.5 -148.5t226.5 -50.5q166 0 275.5 89t109.5 253v211 q-63 -101 -169 -161t-222 -60zM621 102q122 0 227.5 82t124.5 183v329q-46 116 -151 191.5t-220 75.5q-114 0 -202.5 -65.5t-132.5 -163.5t-44 -206q0 -173 116 -299.5t282 -126.5zM668 1360q43 0 76.5 39t39.5 96h84q0 -87 -58 -147t-142 -60q-85 0 -143 59.5t-58 147.5h86 q0 -52 35.5 -93.5t79.5 -41.5z" />
<glyph unicode="&#x120;" horiz-adv-x="1478" d="M1237 0v211q-203 -221 -465 -221q-114 0 -220.5 41t-188.5 113t-144 165t-94.5 201.5t-32.5 218.5q0 145 51 279t138.5 234.5t214 161t268.5 60.5q395 0 555 -317l-111 -74q-137 262 -446 262q-118 0 -218.5 -51.5t-166.5 -136.5t-103.5 -194.5t-37.5 -225.5 q0 -162 71.5 -301.5t197.5 -223t277 -83.5q253 0 455 241v244h-322v111h445v-715h-123zM825 1679h-127v199h127v-199z" />
<glyph unicode="&#x121;" horiz-adv-x="1261" d="M582 -14q-142 0 -258 77.5t-179 201.5t-63 265q0 148 62 274.5t176.5 203.5t257.5 77q244 0 409 -241v223h125v-1071q0 -144 -72 -248.5t-189 -154.5t-263 -50q-174 0 -288 62t-189 180l86 68q61 -98 164.5 -148.5t226.5 -50.5q166 0 275.5 89t109.5 253v211 q-63 -101 -169 -161t-222 -60zM621 102q122 0 227.5 82t124.5 183v329q-46 116 -151 191.5t-220 75.5q-114 0 -202.5 -65.5t-132.5 -163.5t-44 -206q0 -173 116 -299.5t282 -126.5zM729 1296h-127v199h127v-199z" />
<glyph unicode="&#x122;" horiz-adv-x="1478" d="M674 -338v70q23 0 33 8.5t10 28.5v131h119v-131q0 -59 -42.5 -83t-119.5 -24zM1237 0v211q-203 -221 -465 -221q-114 0 -220.5 41t-188.5 113t-144 165t-94.5 201.5t-32.5 218.5q0 145 51 279t138.5 234.5t214 161t268.5 60.5q395 0 555 -317l-111 -74q-137 262 -446 262 q-118 0 -218.5 -51.5t-166.5 -136.5t-103.5 -194.5t-37.5 -225.5q0 -162 71.5 -301.5t197.5 -223t277 -83.5q253 0 455 241v244h-322v111h445v-715h-123z" />
<glyph unicode="&#x123;" horiz-adv-x="1261" d="M856 1495l-176 -225l-92 35l121 190h147zM582 -14q-142 0 -258 77.5t-179 201.5t-63 265q0 148 62 274.5t176.5 203.5t257.5 77q244 0 409 -241v223h125v-1071q0 -144 -72 -248.5t-189 -154.5t-263 -50q-174 0 -288 62t-189 180l86 68q61 -98 164.5 -148.5t226.5 -50.5 q166 0 275.5 89t109.5 253v211q-63 -101 -169 -161t-222 -60zM621 102q122 0 227.5 82t124.5 183v329q-46 116 -151 191.5t-220 75.5q-114 0 -202.5 -65.5t-132.5 -163.5t-44 -206q0 -173 116 -299.5t282 -126.5z" />
<glyph unicode="&#x124;" horiz-adv-x="1513" d="M588 1661l-78 43l201 174h102l203 -174l-80 -43l-174 129zM1188 1454h143v-1454h-143v680h-862v-680h-142v1454h142v-647h862v647z" />
<glyph unicode="&#x125;" horiz-adv-x="1185" d="M520 1276l-74 43l191 172h96l193 -172l-76 -43l-164 129zM1047 625v-625h-140v596q0 362 -245 362q-120 0 -228.5 -88t-144.5 -217v-653h-139v1495h139v-670q64 120 177.5 190t242.5 70q338 0 338 -460z" />
<glyph unicode="&#x126;" horiz-adv-x="1529" d="M1196 1454h143v-248h103v-80h-103v-1126h-143v680h-862v-680h-141v1126h-103v80h103v248h141v-248h862v248zM334 807h862v319h-862v-319z" />
<glyph unicode="&#x127;" horiz-adv-x="1185" d="M1047 625v-625h-140v596q0 362 -245 362q-120 0 -228.5 -88t-144.5 -217v-653h-139v1264h-125v94h125v137h139v-137h252v-94h-252v-439q64 120 177.5 190t242.5 70q338 0 338 -460z" />
<glyph unicode="&#x128;" horiz-adv-x="509" d="M326 0h-142v1452h142v-1452zM381 1690q-52 0 -99.5 20.5t-87.5 41t-75 20.5q-31 0 -53.5 -13.5t-32 -32.5t-13.5 -32.5t-4 -20.5h-86q0 11 4.5 31t17.5 48.5t32.5 52.5t54.5 41.5t78 17.5q48 0 92.5 -21.5t86 -43t83.5 -21.5q30 0 53 10t34.5 23t18.5 28.5t9 24.5t2 14 h86q0 -11 -4.5 -30t-18.5 -47.5t-35 -52.5t-58.5 -41t-84.5 -17z" />
<glyph unicode="&#x129;" horiz-adv-x="438" d="M289 0h-139v1067h139v-1067zM346 1307q-52 0 -99.5 20.5t-87.5 41t-75 20.5q-31 0 -53.5 -13.5t-32 -33t-13 -32.5t-3.5 -20h-86q0 16 8 43t26.5 62.5t58.5 60.5t93 25q48 0 92.5 -21.5t86 -43t83.5 -21.5q30 0 53 10t34.5 23t18.5 28.5t9 24.5t2 14h86q0 -11 -4.5 -30 t-18.5 -47.5t-35 -52.5t-58.5 -41t-84.5 -17z" />
<glyph unicode="&#x12a;" horiz-adv-x="509" d="M326 0h-142v1452h142v-1452zM553 1741h-592v96h592v-96z" />
<glyph unicode="&#x12b;" horiz-adv-x="438" d="M289 0h-139v1067h139v-1067zM516 1358h-592v96h592v-96z" />
<glyph unicode="&#x12c;" horiz-adv-x="509" d="M326 0h-142v1452h142v-1452zM254 1743q43 0 77 39t40 96h84q0 -87 -58.5 -147t-142.5 -60q-85 0 -143 59.5t-58 147.5h86q0 -52 35.5 -93.5t79.5 -41.5z" />
<glyph unicode="&#x12d;" horiz-adv-x="438" d="M289 0h-139v1067h139v-1067zM219 1360q43 0 77 39t40 96h84q0 -87 -58.5 -147t-142.5 -60q-85 0 -143 59.5t-58 147.5h86q0 -52 35.5 -93.5t79.5 -41.5z" />
<glyph unicode="&#x12e;" horiz-adv-x="509" d="M225 -358q-74 15 -113.5 54.5t-39.5 94.5q0 102 153 209h-41v1452h142v-1452q-90 -57 -129 -101t-39 -89q0 -76 106 -91z" />
<glyph unicode="&#x12f;" horiz-adv-x="440" d="M190 -358q-74 15 -113.5 54.5t-39.5 94.5q0 102 153 209h-38v1067h139v-1067q-90 -57 -129 -101t-39 -89q0 -76 106 -91zM291 1290h-139v205h139v-205z" />
<glyph unicode="&#x130;" horiz-adv-x="509" d="M326 0h-142v1452h142v-1452zM317 1679h-127v199h127v-199z" />
<glyph unicode="&#x131;" horiz-adv-x="438" d="M289 0h-139v1067h139v-1067z" />
<glyph unicode="&#x132;" horiz-adv-x="1505" d="M326 0h-142v1452h142v-1452zM547 68l41 114q109 -76 274 -76q63 0 112 14t84 38t60 65.5t40 87.5t23.5 113.5t11.5 133.5t3 157v737h143v-737q0 -103 -4 -180.5t-16.5 -158.5t-34 -138t-57 -109t-85.5 -83.5t-120 -50t-160 -18.5q-182 0 -315 91z" />
<glyph unicode="&#x133;" horiz-adv-x="876" d="M289 0h-139v1067h139v-1067zM289 1290h-139v205h139v-205zM414 -371q-148 0 -234 80l68 94q54 -49 149 -49q74 0 132.5 55.5t58.5 135.5v1122h139v-1114q0 -137 -94.5 -230.5t-218.5 -93.5zM727 1290h-139v205h139v-205z" />
<glyph unicode="&#x134;" horiz-adv-x="995" d="M586 1661l-78 43l201 174h102l203 -174l-80 -43l-174 129zM37 68l41 114q109 -76 274 -76q63 0 112 14t84 38t60 65.5t40 87.5t23.5 113.5t11.5 133.5t3 157v737h143v-737q0 -103 -4 -180.5t-16.5 -158.5t-34 -138t-57 -109t-85.5 -83.5t-120 -50t-160 -18.5 q-182 0 -315 91z" />
<glyph unicode="&#x135;" horiz-adv-x="438" d="M-25 -371q-147 0 -233 80l68 94q54 -49 149 -49q74 0 132.5 55.5t58.5 135.5v1122h139v-1114q0 -137 -95 -230.5t-219 -93.5zM45 1278l-78 43l201 174h102l203 -174l-80 -43l-174 129z" />
<glyph unicode="&#x136;" horiz-adv-x="1312" d="M575 -338v70q23 0 33 8.5t10 28.5v131h119v-131q0 -59 -42.5 -83t-119.5 -24zM326 0h-142v1452h142v-844l800 846h158l-594 -639l627 -815h-158l-557 731l-276 -285v-446z" />
<glyph unicode="&#x137;" horiz-adv-x="1079" d="M459 -338v70q23 0 33 8.5t10 28.5v131h119v-131q0 -59 -42.5 -83t-119.5 -24zM1063 0h-152l-393 547l-229 -213v-334h-139v1495h139v-1016l600 586h158l-437 -436z" />
<glyph unicode="&#x138;" horiz-adv-x="1079" d="M1063 0h-152l-393 547l-229 -213v-334h-139v1067h139v-588l600 586h158l-437 -436z" />
<glyph unicode="&#x139;" horiz-adv-x="1208" d="M893 1878l-176 -225l-92 35l120 190h148zM1167 0h-983v1454h142v-1327h841v-127z" />
<glyph unicode="&#x13a;" horiz-adv-x="540" d="M399 1808l-176 -225l-92 35l121 190h147zM156 195v1300h139v-1253q0 -60 33 -93.5t92 -33.5q55 0 110 22l25 -112q-39 -15 -95.5 -26t-97.5 -11q-96 0 -151 55t-55 152z" />
<glyph unicode="&#x13b;" horiz-adv-x="1208" d="M582 -338v70q23 0 33 8.5t10 28.5v131h118v-131q0 -59 -42 -83t-119 -24zM1167 0h-983v1454h142v-1327h841v-127z" />
<glyph unicode="&#x13c;" horiz-adv-x="540" d="M250 -338v70q23 0 33 8.5t10 28.5v131h119v-131q0 -59 -42.5 -83t-119.5 -24zM156 195v1300h139v-1253q0 -60 33 -93.5t92 -33.5q55 0 110 22l25 -112q-39 -15 -95.5 -26t-97.5 -11q-96 0 -151 55t-55 152z" />
<glyph unicode="&#x13d;" horiz-adv-x="1208" d="M956 1495l-176 -225l-92 35l121 190h147zM1167 0h-983v1454h142v-1327h841v-127z" />
<glyph unicode="&#x13e;" horiz-adv-x="540" d="M657 1495l-176 -225l-92 35l121 190h147zM156 195v1300h139v-1253q0 -60 33 -93.5t92 -33.5q55 0 110 22l25 -112q-39 -15 -95.5 -26t-97.5 -11q-96 0 -151 55t-55 152z" />
<glyph unicode="&#x13f;" horiz-adv-x="1208" d="M1167 0h-983v1454h142v-1327h841v-127zM870 713h-118v229h118v-229z" />
<glyph unicode="&#x140;" horiz-adv-x="641" d="M156 195v1300h139v-1253q0 -60 33 -93.5t92 -33.5q55 0 110 22l25 -112q-39 -15 -95.5 -26t-97.5 -11q-96 0 -151 55t-55 152zM606 539h-119v229h119v-229z" />
<glyph unicode="&#x141;" horiz-adv-x="1224" d="M1182 0h-983v567l-119 -98l-45 82l164 135v768h141v-651l319 266l46 -80l-365 -303v-559h842v-127z" />
<glyph unicode="&#x142;" horiz-adv-x="581" d="M190 195v499l-131 -102l-47 80l178 141v682h140v-573l182 145l47 -80l-229 -182v-563q0 -60 33 -93.5t92 -33.5q55 0 110 22l25 -112q-39 -15 -95.5 -26t-97.5 -11q-96 0 -151.5 55.5t-55.5 151.5z" />
<glyph unicode="&#x143;" horiz-adv-x="1583" d="M987 1878l-176 -225l-92 35l121 190h147zM1276 0l-950 1188v-1188h-142v1454h111l962 -1210v1208h142v-1452h-123z" />
<glyph unicode="&#x144;" horiz-adv-x="1185" d="M793 1495l-177 -225l-92 35l121 190h148zM1047 625v-625h-140v596q0 188 -55 275t-172 87q-126 0 -239 -87t-152 -218v-653h-139v1067h126v-242q65 117 188.5 188.5t264.5 71.5q88 0 150.5 -31.5t99 -93.5t52.5 -144t16 -191z" />
<glyph unicode="&#x145;" horiz-adv-x="1583" d="M694 -338v70q23 0 33 8.5t10 28.5v131h119v-131q0 -59 -42.5 -83t-119.5 -24zM1276 0l-950 1188v-1188h-142v1454h111l962 -1210v1208h142v-1452h-123z" />
<glyph unicode="&#x146;" horiz-adv-x="1185" d="M485 -338v70q23 0 33 8.5t10 28.5v131h119v-131q0 -59 -42.5 -83t-119.5 -24zM1047 625v-625h-140v596q0 188 -55 275t-172 87q-126 0 -239 -87t-152 -218v-653h-139v1067h126v-242q65 117 188.5 188.5t264.5 71.5q88 0 150.5 -31.5t99 -93.5t52.5 -144t16 -191z" />
<glyph unicode="&#x147;" horiz-adv-x="1583" d="M545 1837l78 41l174 -129l174 129l80 -41l-203 -176h-103zM1276 0l-950 1188v-1188h-142v1454h111l962 -1210v1208h142v-1452h-123z" />
<glyph unicode="&#x148;" horiz-adv-x="1185" d="M350 1454l78 41l174 -129l174 129l80 -41l-203 -176h-102zM1047 625v-625h-140v596q0 188 -55 275t-172 87q-126 0 -239 -87t-152 -218v-653h-139v1067h126v-242q65 117 188.5 188.5t264.5 71.5q88 0 150.5 -31.5t99 -93.5t52.5 -144t16 -191z" />
<glyph unicode="&#x149;" horiz-adv-x="1185" d="M260 1495l-178 -225l-92 35l78 120v70h192zM1047 625v-625h-140v596q0 188 -55 275t-172 87q-126 0 -239 -87t-152 -218v-653h-139v1067h126v-242q65 117 188.5 188.5t264.5 71.5q88 0 150.5 -31.5t99 -93.5t52.5 -144t16 -191z" />
<glyph unicode="&#x14a;" horiz-adv-x="1570" d="M1249 18l-923 1168v-1186h-142v1454h109l952 -1204v1202h144v-1503q0 -136 -96.5 -228t-221.5 -92q-145 0 -231 80l69 94q49 -49 148 -49q74 0 133 56t59 135v73z" />
<glyph unicode="&#x14b;" horiz-adv-x="1185" d="M733 -371q-147 0 -233 80l67 94q54 -49 152 -49q73 0 130.5 56t57.5 135v651q0 188 -55 275t-172 87q-126 0 -239 -87t-152 -218v-653h-139v1067h126v-242q65 117 188.5 188.5t264.5 71.5q88 0 150.5 -31.5t99 -93.5t52.5 -144t16 -191v-672q0 -137 -95 -230.5 t-219 -93.5z" />
<glyph unicode="&#x14c;" d="M1073 1741h-592v96h592v-96zM774 -10q-148 0 -277.5 63t-217 166t-137.5 235.5t-50 272.5q0 144 53 278.5t142.5 235.5t218 162t270.5 61q118 0 226 -41.5t189.5 -113.5t142 -166t91.5 -201.5t31 -216.5q0 -144 -52.5 -278t-142 -235t-217.5 -161.5t-270 -60.5zM236 727 q0 -158 67 -296.5t192 -225t279 -86.5q120 0 223 53t171 139t106.5 194.5t38.5 221.5q0 158 -68 296t-193 224t-278 86q-120 0 -223 -52.5t-170.5 -138t-106 -194t-38.5 -221.5z" />
<glyph unicode="&#x14d;" horiz-adv-x="1218" d="M907 1358h-592v96h592v-96zM610 -20q-114 0 -213.5 44.5t-168.5 119t-108.5 175.5t-39.5 211q0 148 68 275.5t190.5 203.5t271.5 76t271.5 -76t191 -203.5t68.5 -275.5t-68 -273.5t-190.5 -201t-272.5 -75.5zM223 528q0 -178 112.5 -302t272.5 -124t274.5 126t114.5 304 t-114 304.5t-273 126.5q-160 0 -273.5 -127.5t-113.5 -307.5z" />
<glyph unicode="&#x14e;" d="M774 -10q-148 0 -277.5 63t-217 166t-137.5 235.5t-50 272.5q0 144 53 278.5t142.5 235.5t218 162t270.5 61q118 0 226 -41.5t189.5 -113.5t142 -166t91.5 -201.5t31 -216.5q0 -144 -52.5 -278t-142 -235t-217.5 -161.5t-270 -60.5zM236 727q0 -158 67 -296.5t192 -225 t279 -86.5q120 0 223 53t171 139t106.5 194.5t38.5 221.5q0 158 -68 296t-193 224t-278 86q-120 0 -223 -52.5t-170.5 -138t-106 -194t-38.5 -221.5zM776 1743q43 0 77 39t40 96h84q0 -87 -58.5 -147t-142.5 -60q-85 0 -143 59.5t-58 147.5h87q0 -52 35 -93.5t79 -41.5z" />
<glyph unicode="&#x14f;" horiz-adv-x="1218" d="M610 -20q-114 0 -213.5 44.5t-168.5 119t-108.5 175.5t-39.5 211q0 148 68 275.5t190.5 203.5t271.5 76t271.5 -76t191 -203.5t68.5 -275.5t-68 -273.5t-190.5 -201t-272.5 -75.5zM223 528q0 -178 112.5 -302t272.5 -124t274.5 126t114.5 304t-114 304.5t-273 126.5 q-160 0 -273.5 -127.5t-113.5 -307.5zM610 1360q43 0 77 39t40 96h84q0 -87 -58.5 -147t-142.5 -60q-85 0 -142.5 59.5t-57.5 147.5h86q0 -52 35 -93.5t79 -41.5z" />
<glyph unicode="&#x150;" d="M819 1878l-172 -225l-76 35l117 190h131zM1075 1878l-170 -225l-78 35l117 190h131zM774 -10q-148 0 -277.5 63t-217 166t-137.5 235.5t-50 272.5q0 144 53 278.5t142.5 235.5t218 162t270.5 61q118 0 226 -41.5t189.5 -113.5t142 -166t91.5 -201.5t31 -216.5 q0 -144 -52.5 -278t-142 -235t-217.5 -161.5t-270 -60.5zM236 727q0 -158 67 -296.5t192 -225t279 -86.5q120 0 223 53t171 139t106.5 194.5t38.5 221.5q0 158 -68 296t-193 224t-278 86q-120 0 -223 -52.5t-170.5 -138t-106 -194t-38.5 -221.5z" />
<glyph unicode="&#x151;" horiz-adv-x="1218" d="M651 1495l-172 -225l-76 35l117 190h131zM907 1495l-170 -225l-78 35l117 190h131zM610 -20q-114 0 -213.5 44.5t-168.5 119t-108.5 175.5t-39.5 211q0 148 68 275.5t190.5 203.5t271.5 76t271.5 -76t191 -203.5t68.5 -275.5t-68 -273.5t-190.5 -201t-272.5 -75.5z M223 528q0 -178 112.5 -302t272.5 -124t274.5 126t114.5 304t-114 304.5t-273 126.5q-160 0 -273.5 -127.5t-113.5 -307.5z" />
<glyph unicode="&#x152;" horiz-adv-x="2375" d="M1460 127h824v-127h-967v369q-71 -167 -217 -273t-324 -106q-148 0 -277.5 63t-217.5 166t-138.5 235.5t-50.5 272.5q0 144 53 278.5t142.5 235.5t218 162t270.5 61q183 0 326.5 -107t214.5 -272v369h948v-127h-805v-522h694v-127h-694v-551zM774 119q120 0 223 52.5 t171 139t106.5 195.5t38.5 223q0 157 -68 295t-193 224.5t-278 86.5q-96 0 -182 -34t-150 -93.5t-111 -136.5t-71 -165.5t-24 -178.5q0 -158 67 -296.5t192 -225t279 -86.5z" />
<glyph unicode="&#x153;" horiz-adv-x="2121" d="M608 -20q-223 0 -374.5 158.5t-151.5 389.5q0 154 69.5 282t191 201.5t267.5 73.5q156 0 278.5 -90.5t178.5 -246.5q57 160 178 248.5t285 88.5q224 0 367.5 -151t160.5 -402q0 -41 -2 -49h-911q14 -168 131 -282.5t278 -114.5q111 0 203.5 53.5t126.5 139.5l117 -33 q-52 -118 -178.5 -192t-274.5 -74q-153 0 -282 90.5t-197 242.5q-68 -156 -189 -244.5t-272 -88.5zM610 102q163 0 275 124t112 304q0 181 -112 307t-273 126t-275 -128t-114 -309q0 -180 112 -302t275 -122zM1143 578h780q-12 173 -125.5 286t-271.5 113 q-157 0 -265.5 -113t-117.5 -286z" />
<glyph unicode="&#x154;" horiz-adv-x="1351" d="M842 1882l-176 -225l-93 35l121 190h148zM326 0h-142v1454h613q121 0 222 -67.5t155.5 -172t54.5 -217.5q0 -160 -90.5 -283.5t-235.5 -152.5l359 -561h-162l-344 537h-430v-537zM326 1327v-663h477q83 0 148.5 47.5t99.5 123t34 162.5q0 133 -87.5 231.5t-206.5 98.5 h-465z" />
<glyph unicode="&#x155;" horiz-adv-x="718" d="M596 1495l-176 -225l-92 35l121 190h147zM682 1071v-127q-141 -5 -246 -78.5t-147 -201.5v-664h-139v1067h131v-256q57 116 148.5 189t191.5 73q47 0 61 -2z" />
<glyph unicode="&#x156;" horiz-adv-x="1351" d="M569 -338v70q23 0 33 8.5t10 28.5v131h119v-131q0 -59 -42.5 -83t-119.5 -24zM326 0h-142v1454h613q121 0 222 -67.5t155.5 -172t54.5 -217.5q0 -160 -90.5 -283.5t-235.5 -152.5l359 -561h-162l-344 537h-430v-537zM326 1327v-663h477q83 0 148.5 47.5t99.5 123 t34 162.5q0 133 -87.5 231.5t-206.5 98.5h-465z" />
<glyph unicode="&#x157;" horiz-adv-x="718" d="M113 -338v70q23 0 33 8.5t10 28.5v131h118v-131q0 -59 -42 -83t-119 -24zM682 1071v-127q-141 -5 -246 -78.5t-147 -201.5v-664h-139v1067h131v-256q57 116 148.5 189t191.5 73q47 0 61 -2z" />
<glyph unicode="&#x158;" horiz-adv-x="1351" d="M399 1841l78 41l174 -129l174 129l80 -41l-203 -176h-102zM326 0h-142v1454h613q121 0 222 -67.5t155.5 -172t54.5 -217.5q0 -160 -90.5 -283.5t-235.5 -152.5l359 -561h-162l-344 537h-430v-537zM326 1327v-663h477q83 0 148.5 47.5t99.5 123t34 162.5 q0 133 -87.5 231.5t-206.5 98.5h-465z" />
<glyph unicode="&#x159;" horiz-adv-x="718" d="M156 1454l77 41l175 -129l174 129l80 -41l-203 -176h-103zM682 1071v-127q-141 -5 -246 -78.5t-147 -201.5v-664h-139v1067h131v-256q57 116 148.5 189t191.5 73q47 0 61 -2z" />
<glyph unicode="&#x15a;" horiz-adv-x="1253" d="M836 1911l-177 -225l-92 34l121 191h148zM1106 1296l-68 -114q-63 71 -167 113t-230 42q-188 0 -279.5 -70.5t-91.5 -199.5q0 -51 16.5 -89.5t44.5 -65.5t82 -49.5t112 -38.5t151 -36q101 -22 172 -43t137.5 -53.5t106 -74t63 -100.5t23.5 -136q0 -130 -68.5 -220 t-184 -131.5t-270.5 -41.5q-340 0 -583 211l69 116q84 -88 220.5 -144t295.5 -56q176 0 273.5 64t97.5 188q0 53 -19 93.5t-51 70t-90.5 54.5t-121 43t-158.5 40q-99 23 -165.5 44t-127.5 51.5t-95.5 68.5t-54.5 91.5t-20 123.5q0 198 142 307.5t376 109.5q271 0 463 -168z " />
<glyph unicode="&#x15b;" horiz-adv-x="997" d="M692 1495l-176 -225l-92 35l121 190h147zM508 -20q-127 0 -245.5 41t-203.5 118l64 94q178 -147 383 -147q129 0 205.5 53.5t76.5 147.5q0 35 -14 62t-35.5 45.5t-66.5 36t-87.5 29t-117.5 29.5q-83 20 -133.5 36t-98.5 38t-72.5 48t-39 63.5t-14.5 87.5q0 104 55 178.5 t143.5 109.5t200.5 35q120 0 221 -39.5t164 -105.5l-68 -82q-59 60 -143.5 91.5t-177.5 31.5q-116 0 -189 -50t-73 -149q0 -34 10.5 -58.5t27 -41t53.5 -31.5t73 -25t102 -26q92 -22 150 -39.5t114 -42.5t86 -54t48 -70t18 -95q0 -146 -113.5 -232.5t-302.5 -86.5z" />
<glyph unicode="&#x15c;" horiz-adv-x="1253" d="M473 1694l-78 43l201 174h102l203 -174l-80 -43l-174 129zM1106 1296l-68 -114q-63 71 -167 113t-230 42q-188 0 -279.5 -70.5t-91.5 -199.5q0 -51 16.5 -89.5t44.5 -65.5t82 -49.5t112 -38.5t151 -36q101 -22 172 -43t137.5 -53.5t106 -74t63 -100.5t23.5 -136 q0 -130 -68.5 -220t-184 -131.5t-270.5 -41.5q-340 0 -583 211l69 116q84 -88 220.5 -144t295.5 -56q176 0 273.5 64t97.5 188q0 53 -19 93.5t-51 70t-90.5 54.5t-121 43t-158.5 40q-99 23 -165.5 44t-127.5 51.5t-95.5 68.5t-54.5 91.5t-20 123.5q0 198 142 307.5 t376 109.5q271 0 463 -168z" />
<glyph unicode="&#x15d;" horiz-adv-x="997" d="M330 1278l-78 43l201 174h102l203 -174l-80 -43l-174 129zM508 -20q-127 0 -245.5 41t-203.5 118l64 94q178 -147 383 -147q129 0 205.5 53.5t76.5 147.5q0 35 -14 62t-35.5 45.5t-66.5 36t-87.5 29t-117.5 29.5q-83 20 -133.5 36t-98.5 38t-72.5 48t-39 63.5t-14.5 87.5 q0 104 55 178.5t143.5 109.5t200.5 35q120 0 221 -39.5t164 -105.5l-68 -82q-59 60 -143.5 91.5t-177.5 31.5q-116 0 -189 -50t-73 -149q0 -34 10.5 -58.5t27 -41t53.5 -31.5t73 -25t102 -26q92 -22 150 -39.5t114 -42.5t86 -54t48 -70t18 -95q0 -146 -113.5 -232.5 t-302.5 -86.5z" />
<glyph unicode="&#x15e;" horiz-adv-x="1253" d="M471 -322l35 64q76 -37 180 -37q117 0 117 72q0 73 -103 73q-81 0 -163 -28l90 166q-324 9 -555 211l69 116q84 -88 220.5 -144t295.5 -56q176 0 273.5 64t97.5 188q0 53 -19 93.5t-51 70t-90.5 54.5t-121 43t-158.5 40q-99 23 -165.5 44t-127.5 51.5t-95.5 68.5 t-54.5 91.5t-20 123.5q0 198 142 307.5t376 109.5q271 0 463 -168l-68 -114q-63 71 -167 113t-230 42q-188 0 -279.5 -70.5t-91.5 -199.5q0 -51 16.5 -89.5t44.5 -65.5t82 -49.5t112 -38.5t151 -36q101 -22 172 -43t137.5 -53.5t106 -74t63 -100.5t23.5 -136 q0 -184 -127.5 -283t-343.5 -108l-58 -94q30 12 78 12q72 0 114 -32.5t42 -92.5q0 -69 -54 -106t-155 -37q-102 0 -203 38z" />
<glyph unicode="&#x15f;" horiz-adv-x="999" d="M315 -322l35 64q76 -37 180 -37q117 0 117 72q0 73 -102 73q-82 0 -164 -28l86 160q-118 6 -225 46t-183 111l64 94q178 -147 383 -147q129 0 205.5 53.5t76.5 147.5q0 35 -14 62t-35.5 45.5t-66.5 36t-87.5 29t-117.5 29.5q-83 20 -133.5 36t-98.5 38t-72.5 48t-39 63.5 t-14.5 87.5q0 104 55 178.5t143.5 109.5t200.5 35q120 0 221 -39.5t164 -105.5l-68 -82q-59 60 -143.5 91.5t-177.5 31.5q-116 0 -189 -50t-73 -149q0 -34 10.5 -58.5t27 -41t53.5 -31.5t73 -25t102 -26q92 -22 150 -39.5t114 -42.5t86 -54t48 -70t18 -95 q0 -137 -102 -222.5t-275 -94.5l-53 -86q30 12 77 12q72 0 114 -32.5t42 -92.5q0 -69 -54 -106t-155 -37q-102 0 -203 38z" />
<glyph unicode="&#x160;" horiz-adv-x="1253" d="M395 1870l78 41l174 -129l174 129l80 -41l-203 -176h-102zM1106 1296l-68 -114q-63 71 -167 113t-230 42q-188 0 -279.5 -70.5t-91.5 -199.5q0 -51 16.5 -89.5t44.5 -65.5t82 -49.5t112 -38.5t151 -36q101 -22 172 -43t137.5 -53.5t106 -74t63 -100.5t23.5 -136 q0 -130 -68.5 -220t-184 -131.5t-270.5 -41.5q-340 0 -583 211l69 116q84 -88 220.5 -144t295.5 -56q176 0 273.5 64t97.5 188q0 53 -19 93.5t-51 70t-90.5 54.5t-121 43t-158.5 40q-99 23 -165.5 44t-127.5 51.5t-95.5 68.5t-54.5 91.5t-20 123.5q0 198 142 307.5 t376 109.5q271 0 463 -168z" />
<glyph unicode="&#x161;" horiz-adv-x="997" d="M252 1454l78 41l174 -129l174 129l80 -41l-203 -176h-102zM508 -20q-127 0 -245.5 41t-203.5 118l64 94q178 -147 383 -147q129 0 205.5 53.5t76.5 147.5q0 35 -14 62t-35.5 45.5t-66.5 36t-87.5 29t-117.5 29.5q-83 20 -133.5 36t-98.5 38t-72.5 48t-39 63.5t-14.5 87.5 q0 104 55 178.5t143.5 109.5t200.5 35q120 0 221 -39.5t164 -105.5l-68 -82q-59 60 -143.5 91.5t-177.5 31.5q-116 0 -189 -50t-73 -149q0 -34 10.5 -58.5t27 -41t53.5 -31.5t73 -25t102 -26q92 -22 150 -39.5t114 -42.5t86 -54t48 -70t18 -95q0 -146 -113.5 -232.5 t-302.5 -86.5z" />
<glyph unicode="&#x162;" horiz-adv-x="1257" d="M436 -322l35 64q76 -37 180 -37q117 0 117 72q0 73 -102 73q-82 0 -164 -28l96 178h-41v1327h-518v127h1180v-127h-519v-1327h-20l-66 -104q30 12 78 12q72 0 114 -32.5t42 -92.5q0 -69 -54 -106t-155 -37q-102 0 -203 38z" />
<glyph unicode="&#x163;" horiz-adv-x="679" d="M229 -322l35 64q76 -37 180 -37q117 0 117 72q0 73 -102 73q-82 0 -164 -28l90 168q-82 9 -134 61.5t-52 141.5v763h-148v111h148v360h139v-360h246v-111h-246v-725q4 -56 39.5 -85t89.5 -29q87 0 162 47l37 -113q-2 -1 -21.5 -9.5t-35 -14.5t-39.5 -14.5t-50 -14 t-53 -8.5l-59 -94q30 12 77 12q72 0 114 -32.5t42 -92.5q0 -69 -54 -106t-155 -37q-102 0 -203 38z" />
<glyph unicode="&#x164;" horiz-adv-x="1257" d="M381 1837l78 41l174 -129l174 129l80 -41l-203 -176h-102zM1219 1454v-127h-519v-1327h-143v1327h-518v127h1180z" />
<glyph unicode="&#x165;" horiz-adv-x="679" d="M741 1495l-176 -225l-92 35l121 190h147zM629 164l37 -113q-1 -1 -20.5 -9.5t-32 -13.5t-37.5 -13.5t-46 -13.5t-50 -9t-56 -4q-96 0 -160.5 53.5t-64.5 151.5v763h-148v111h148v360h139v-360h246v-111h-246v-725q4 -56 39.5 -85t89.5 -29q87 0 162 47z" />
<glyph unicode="&#x166;" horiz-adv-x="1333" d="M1255 1454v-127h-518v-498h451v-79h-451v-750h-143v750h-451v79h451v498h-518v127h1179z" />
<glyph unicode="&#x167;" horiz-adv-x="681" d="M631 164l37 -113q-1 -1 -20.5 -9.5t-32 -13.5t-37.5 -13.5t-46 -13.5t-50 -9t-56 -4q-96 0 -160.5 53.5t-64.5 151.5v436h-148v94h148v233h-148v111h148v360h139v-360h246v-111h-246v-233h246v-94h-246v-398q4 -56 39.5 -85t89.5 -29q87 0 162 47z" />
<glyph unicode="&#x168;" horiz-adv-x="1546" d="M772 119q107 0 190.5 34.5t135.5 91.5t85.5 136.5t46.5 162.5t13 177v733h143v-733q0 -121 -20.5 -226.5t-67 -199.5t-116 -160.5t-174 -105.5t-234.5 -39q-135 0 -241 41t-174.5 109t-114 163.5t-64 198.5t-18.5 219v733h141v-733q0 -96 14 -180t48 -163t86 -135.5 t134 -90t187 -33.5zM901 1690q-52 0 -99.5 20.5t-87.5 41t-75 20.5q-31 0 -53.5 -13.5t-32 -33t-13 -32.5t-3.5 -20h-86q0 16 8 43t26.5 62.5t58.5 60.5t93 25q48 0 92.5 -21.5t86 -43t83.5 -21.5q30 0 53 10t34.5 23t18.5 28.5t9 24.5t2 14h86q0 -11 -4.5 -30t-18.5 -47.5 t-35 -52.5t-58.5 -41t-84.5 -17z" />
<glyph unicode="&#x169;" horiz-adv-x="1216" d="M479 -20q-167 0 -253.5 116.5t-86.5 343.5v627h140v-602q0 -363 247 -363q125 0 231.5 80t153.5 213v672h140v-887q0 -57 51 -57v-123q-40 -6 -58 -6q-48 0 -81 29t-33 71v148q-70 -124 -190 -193t-261 -69zM719 1307q-52 0 -99.5 20.5t-87.5 41t-75 20.5 q-31 0 -53.5 -13.5t-32 -32.5t-13.5 -32.5t-4 -20.5h-86q0 11 4.5 31t17.5 48.5t32.5 52.5t54.5 41.5t78 17.5q48 0 92.5 -21.5t86 -43t83.5 -21.5q30 0 53 10t34.5 23t18.5 28.5t9 24.5t2 14h86q0 -11 -4.5 -30t-18.5 -47.5t-35 -52.5t-58.5 -41t-84.5 -17z" />
<glyph unicode="&#x16a;" horiz-adv-x="1546" d="M772 119q107 0 190.5 34.5t135.5 91.5t85.5 136.5t46.5 162.5t13 177v733h143v-733q0 -121 -20.5 -226.5t-67 -199.5t-116 -160.5t-174 -105.5t-234.5 -39q-135 0 -241 41t-174.5 109t-114 163.5t-64 198.5t-18.5 219v733h141v-733q0 -96 14 -180t48 -163t86 -135.5 t134 -90t187 -33.5zM1071 1741h-592v96h592v-96z" />
<glyph unicode="&#x16b;" horiz-adv-x="1216" d="M479 -20q-167 0 -253.5 116.5t-86.5 343.5v627h140v-602q0 -363 247 -363q125 0 231.5 80t153.5 213v672h140v-887q0 -57 51 -57v-123q-40 -6 -58 -6q-48 0 -81 29t-33 71v148q-70 -124 -190 -193t-261 -69zM889 1358h-592v96h592v-96z" />
<glyph unicode="&#x16c;" horiz-adv-x="1546" d="M772 119q107 0 190.5 34.5t135.5 91.5t85.5 136.5t46.5 162.5t13 177v733h143v-733q0 -121 -20.5 -226.5t-67 -199.5t-116 -160.5t-174 -105.5t-234.5 -39q-135 0 -241 41t-174.5 109t-114 163.5t-64 198.5t-18.5 219v733h141v-733q0 -96 14 -180t48 -163t86 -135.5 t134 -90t187 -33.5zM774 1743q43 0 77 39t40 96h84q0 -87 -58.5 -147t-142.5 -60q-85 0 -143 59.5t-58 147.5h86q0 -52 35.5 -93.5t79.5 -41.5z" />
<glyph unicode="&#x16d;" horiz-adv-x="1216" d="M479 -20q-167 0 -253.5 116.5t-86.5 343.5v627h140v-602q0 -363 247 -363q125 0 231.5 80t153.5 213v672h140v-887q0 -57 51 -57v-123q-40 -6 -58 -6q-48 0 -81 29t-33 71v148q-70 -124 -190 -193t-261 -69zM592 1360q43 0 77 39t40 96h84q0 -87 -58.5 -147t-142.5 -60 q-85 0 -143 59.5t-58 147.5h86q0 -52 35.5 -93.5t79.5 -41.5z" />
<glyph unicode="&#x16e;" horiz-adv-x="1546" d="M623 1745q0 60 42 96.5t109 36.5t109.5 -37t42.5 -96q0 -61 -42.5 -98t-109.5 -37t-109 37t-42 98zM774 1823q-35 0 -58.5 -21.5t-23.5 -56.5q0 -34 23.5 -57t58.5 -23q33 0 58.5 23t25.5 57q0 35 -24 56.5t-60 21.5zM772 119q107 0 190.5 34.5t135.5 91.5t85.5 136.5 t46.5 162.5t13 177v733h143v-733q0 -121 -20.5 -226.5t-67 -199.5t-116 -160.5t-174 -105.5t-234.5 -39q-135 0 -241 41t-174.5 109t-114 163.5t-64 198.5t-18.5 219v733h141v-733q0 -96 14 -180t48 -163t86 -135.5t134 -90t187 -33.5z" />
<glyph unicode="&#x16f;" horiz-adv-x="1216" d="M440 1362q0 59 42.5 96t109.5 37t109 -36.5t42 -96.5q0 -61 -42 -98t-109 -37t-109.5 37t-42.5 98zM592 1440q-35 0 -58.5 -21.5t-23.5 -56.5q0 -34 23.5 -57t58.5 -23q33 0 58.5 23t25.5 57q0 35 -24 56.5t-60 21.5zM479 -20q-167 0 -253.5 116.5t-86.5 343.5v627h140 v-602q0 -363 247 -363q125 0 231.5 80t153.5 213v672h140v-887q0 -57 51 -57v-123q-40 -6 -58 -6q-48 0 -81 29t-33 71v148q-70 -124 -190 -193t-261 -69z" />
<glyph unicode="&#x170;" horiz-adv-x="1546" d="M772 119q107 0 190.5 34.5t135.5 91.5t85.5 136.5t46.5 162.5t13 177v733h143v-733q0 -121 -20.5 -226.5t-67 -199.5t-116 -160.5t-174 -105.5t-234.5 -39q-135 0 -241 41t-174.5 109t-114 163.5t-64 198.5t-18.5 219v733h141v-733q0 -96 14 -180t48 -163t86 -135.5 t134 -90t187 -33.5zM815 1878l-172 -225l-76 35l117 190h131zM1071 1878l-170 -225l-78 35l117 190h131z" />
<glyph unicode="&#x171;" horiz-adv-x="1216" d="M479 -20q-167 0 -253.5 116.5t-86.5 343.5v627h140v-602q0 -363 247 -363q125 0 231.5 80t153.5 213v672h140v-887q0 -57 51 -57v-123q-40 -6 -58 -6q-48 0 -81 29t-33 71v148q-70 -124 -190 -193t-261 -69zM633 1495l-172 -225l-76 35l117 190h131zM889 1495l-170 -225 l-78 35l117 190h131z" />
<glyph unicode="&#x172;" horiz-adv-x="1546" d="M772 119q107 0 190.5 34.5t135.5 91.5t85.5 136.5t46.5 162.5t13 177v733h143v-733q0 -117 -19.5 -220.5t-63 -195.5t-109 -158.5t-162.5 -108t-219 -46.5q-88 -56 -126 -100t-38 -89q0 -75 107 -90l-39 -78q-74 15 -114 55t-40 95q0 99 152 207q-102 7 -186 39 t-143.5 84.5t-103.5 119t-70 147t-38 164t-12 175.5v733h141v-733q0 -96 14 -180t48 -163t86 -135.5t134 -90t187 -33.5z" />
<glyph unicode="&#x173;" horiz-adv-x="1216" d="M479 -20q-167 0 -253.5 116.5t-86.5 343.5v627h140v-602q0 -363 247 -363q125 0 231.5 80t153.5 213v672h140v-887q0 -57 51 -57v-123q-90 -57 -129 -101t-39 -89q0 -76 106 -91l-39 -77q-74 15 -113.5 54.5t-39.5 94.5q0 102 153 209q-33 11 -52 36t-19 58v148 q-70 -124 -190 -193t-261 -69z" />
<glyph unicode="&#x174;" horiz-adv-x="2142" d="M895 1661l-78 43l201 174h102l203 -174l-80 -43l-174 129zM981 823l-254 621h137l205 -516l207 516h135l-254 -621l279 -657l526 1288h156l-615 -1454h-127l-305 719l-307 -719h-127l-612 1454h151l529 -1288z" />
<glyph unicode="&#x175;" horiz-adv-x="1669" d="M659 1278l-77 43l200 174h103l202 -174l-79 -43l-174 129zM1114 143l387 924h135l-456 -1067h-117l-227 545l-228 -545h-116l-457 1067h133l389 -924l203 488l-182 434h118l140 -348l137 348h119l-181 -434z" />
<glyph unicode="&#x176;" horiz-adv-x="1298" d="M16 1454h156l477 -782l479 782h156l-565 -913v-541h-141v545zM473 1661l-78 43l201 174h102l203 -174l-80 -43l-174 129z" />
<glyph unicode="&#x177;" horiz-adv-x="1110" d="M211 -453v123q24 -4 41 -4q50 0 78 12q23 9 53 68t109 254l-465 1067h145l395 -938l365 938h133l-555 -1376q-32 -77 -85 -113.5t-144 -36.5q-40 0 -70 6zM391 1278l-78 43l201 174h102l203 -174l-80 -43l-174 129z" />
<glyph unicode="&#x178;" horiz-adv-x="1298" d="M16 1454h156l477 -782l479 782h156l-565 -913v-541h-141v545zM555 1679h-119v193h119v-193zM860 1679h-119v193h119v-193z" />
<glyph unicode="&#x179;" horiz-adv-x="1277" d="M860 1878l-176 -225l-92 35l121 190h147zM57 0v113l990 1214h-973v127h1138v-113l-976 -1214h974v-127h-1153z" />
<glyph unicode="&#x17a;" horiz-adv-x="995" d="M709 1495l-177 -225l-92 35l121 190h148zM57 0v94l721 869h-704v104h856v-94l-717 -869h717v-104h-873z" />
<glyph unicode="&#x17b;" horiz-adv-x="1277" d="M57 0v113l990 1214h-973v127h1138v-113l-976 -1214h974v-127h-1153zM735 1679h-127v199h127v-199z" />
<glyph unicode="&#x17c;" horiz-adv-x="995" d="M57 0v94l721 869h-704v104h856v-94l-717 -869h717v-104h-873zM582 1296h-127v199h127v-199z" />
<glyph unicode="&#x17d;" horiz-adv-x="1277" d="M420 1837l78 41l174 -129l174 129l80 -41l-203 -176h-102zM57 0v113l990 1214h-973v127h1138v-113l-976 -1214h974v-127h-1153z" />
<glyph unicode="&#x17e;" horiz-adv-x="995" d="M266 1454l78 41l174 -129l174 129l80 -41l-203 -176h-102zM57 0v94l721 869h-704v104h856v-94l-717 -869h717v-104h-873z" />
<glyph unicode="&#x192;" horiz-adv-x="1077" d="M297 -371q-148 0 -234 80l68 94q54 -49 150 -49q74 0 132 55.5t58 135.5v886h-147v111h147v154q0 195 84 307.5t229 112.5q61 0 122 -18.5t104 -49.5l-43 -100q-60 47 -156 47q-98 0 -149.5 -76t-51.5 -219v-158h295v-111h-295v-882q0 -137 -95 -228.5t-218 -91.5z" />
<glyph unicode="&#x1ea;" d="M719 -365q-74 15 -114 55t-40 95q0 101 152 209q-137 11 -255.5 77.5t-198.5 167t-125.5 228t-45.5 260.5q0 144 53 278.5t142.5 235.5t218 162t270.5 61q118 0 226 -41.5t189.5 -113.5t142 -166t91.5 -201.5t31 -216.5q0 -185 -82.5 -348.5t-230.5 -268t-328 -116.5 q-88 -55 -126 -99.5t-38 -89.5q0 -75 107 -90zM236 727q0 -158 67 -296.5t192 -225t279 -86.5q120 0 223 53t171 139t106.5 194.5t38.5 221.5q0 158 -68 296t-193 224t-278 86q-120 0 -223 -52.5t-170.5 -138t-106 -194t-38.5 -221.5z" />
<glyph unicode="&#x1eb;" horiz-adv-x="1222" d="M594 -371q-74 15 -114 55t-40 95q0 100 144 201q-219 12 -360.5 171t-141.5 379q0 148 68 275.5t190.5 203.5t271.5 76t271.5 -76t191 -203.5t68.5 -275.5q0 -206 -127.5 -361t-325.5 -183q-88 -56 -126 -100t-38 -89q0 -75 107 -90zM225 528q0 -178 112.5 -302 t272.5 -124t274.5 126t114.5 304t-114 304.5t-273 126.5q-160 0 -273.5 -127.5t-113.5 -307.5z" />
<glyph unicode="&#x1fa;" horiz-adv-x="1390" d="M895 1880l-121 -229q74 -38 74 -117q0 -82 -76 -121l592 -1413h-154l-188 455h-653l-187 -455h-151l592 1413q-78 32 -78 121q0 54 35 89.5t92 41.5l76 215h147zM989 567l-291 719l-299 -719h590zM696 1612q-35 0 -58.5 -21.5t-23.5 -56.5q0 -34 23.5 -57t58.5 -23 q33 0 58.5 23t25.5 57q0 35 -24 56.5t-60 21.5z" />
<glyph unicode="&#x1fb;" horiz-adv-x="1122" d="M432 -20q-161 0 -263.5 95t-102.5 230q0 148 124.5 238t325.5 90q175 0 313 -55v96q0 141 -81 224t-218 83q-163 0 -344 -127l-49 92q207 139 408 139q195 0 309.5 -113t114.5 -310v-482q0 -57 49 -57v-123q-46 -4 -55 -4q-44 0 -77 25.5t-36 72.5l-4 84 q-68 -92 -182 -145t-232 -53zM467 86q94 0 185 41t143 109q34 47 34 79v174q-147 56 -292 56q-151 0 -243.5 -61.5t-92.5 -166.5q0 -93 70 -162t196 -69zM727 1802l-176 -225l-92 35l121 190h147zM385 1362q0 59 42.5 96t109.5 37t109 -36.5t42 -96.5q0 -61 -42 -98 t-109 -37t-109.5 37t-42.5 98zM537 1440q-35 0 -58.5 -21.5t-23.5 -56.5q0 -34 23.5 -57t58.5 -23q33 0 58.5 23t25.5 57q0 35 -24 56.5t-60 21.5z" />
<glyph unicode="&#x1fc;" horiz-adv-x="2029" d="M1288 1878l-176 -225l-92 35l121 190h147zM-2 0l936 1454h985v-127h-807v-522h696v-127h-696v-551h825v-127h-964v455h-531l-288 -455h-156zM508 582h455v700z" />
<glyph unicode="&#x1fd;" horiz-adv-x="1908" d="M1098 1495l-176 -225l-93 35l121 190h148zM422 -20q-149 0 -250.5 95.5t-101.5 235.5q0 141 124 231.5t320 90.5q143 0 274 -41q7 90 35 156q-19 109 -96.5 171t-198.5 62q-156 0 -340 -127l-49 92q207 139 402 139q131 0 225.5 -55.5t142.5 -157.5q70 98 176 155.5 t232 57.5q152 0 274.5 -75t189.5 -201t68 -277q0 -41 -2 -49h-927q13 -171 130.5 -284t278.5 -113q106 0 199 54t129 139l121 -33q-50 -118 -175.5 -192t-279.5 -74q-137 0 -252 63.5t-186 171.5q-44 -79 -124.5 -134t-166 -78t-172.5 -23zM455 86q108 0 200 41t140 109 q33 33 36 71q-39 77 -43 197q-121 41 -256 41q-148 0 -239.5 -61.5t-91.5 -161.5q0 -99 74 -167.5t180 -68.5zM920 578h796q-12 175 -125 287t-276 112t-274.5 -113t-120.5 -286z" />
<glyph unicode="&#x1fe;" d="M1178 1454h159l-116 -174q110 -107 172.5 -254t62.5 -301q0 -144 -52.5 -278t-142 -235t-217.5 -161.5t-270 -60.5q-190 0 -346 100l-59 -90h-158l115 172q-110 106 -172 252t-62 303q0 144 53 278.5t142.5 235.5t218 162t270.5 61q183 0 340 -100zM1313 727 q0 123 -44.5 237.5t-123.5 200.5l-643 -964q125 -82 272 -82q120 0 223 53t171 139t106.5 194.5t38.5 221.5zM236 727q0 -125 43 -240t122 -202l641 966q-125 82 -268 82q-120 0 -223 -52.5t-170.5 -138t-106 -194t-38.5 -221.5zM965 1878l-177 -225l-92 35l121 190h148z " />
<glyph unicode="&#x1ff;" horiz-adv-x="1218" d="M190 -2l80 104q-90 77 -140 189t-50 239q0 148 68 275.5t190.5 203.5t271.5 76t275 -77l47 63h96l-82 -110q91 -77 143 -190.5t52 -240.5q0 -148 -68 -273.5t-190.5 -201t-272.5 -75.5q-154 0 -280 77l-45 -59h-95zM223 528q0 -195 129 -321l459 692q-97 64 -201 64 q-160 0 -273.5 -127.5t-113.5 -307.5zM608 102q160 0 274.5 126t114.5 304q0 93 -35 177t-96 145l-458 -690q91 -62 200 -62zM799 1495l-176 -225l-93 35l121 190h148z" />
<glyph unicode="&#x218;" horiz-adv-x="1253" d="M555 -338v70q23 0 33 8.5t10 28.5v131h119v-131q0 -59 -42.5 -83t-119.5 -24zM1106 1296l-68 -114q-63 71 -167 113t-230 42q-188 0 -279.5 -70.5t-91.5 -199.5q0 -51 16.5 -89.5t44.5 -65.5t82 -49.5t112 -38.5t151 -36q101 -22 172 -43t137.5 -53.5t106 -74t63 -100.5 t23.5 -136q0 -130 -68.5 -220t-184 -131.5t-270.5 -41.5q-340 0 -583 211l69 116q84 -88 220.5 -144t295.5 -56q176 0 273.5 64t97.5 188q0 53 -19 93.5t-51 70t-90.5 54.5t-121 43t-158.5 40q-99 23 -165.5 44t-127.5 51.5t-95.5 68.5t-54.5 91.5t-20 123.5 q0 198 142 307.5t376 109.5q271 0 463 -168z" />
<glyph unicode="&#x219;" horiz-adv-x="997" d="M406 -338v70q23 0 33 8.5t10 28.5v131h118v-131q0 -59 -42 -83t-119 -24zM508 -20q-127 0 -245.5 41t-203.5 118l64 94q178 -147 383 -147q129 0 205.5 53.5t76.5 147.5q0 35 -14 62t-35.5 45.5t-66.5 36t-87.5 29t-117.5 29.5q-83 20 -133.5 36t-98.5 38t-72.5 48 t-39 63.5t-14.5 87.5q0 104 55 178.5t143.5 109.5t200.5 35q120 0 221 -39.5t164 -105.5l-68 -82q-59 60 -143.5 91.5t-177.5 31.5q-116 0 -189 -50t-73 -149q0 -34 10.5 -58.5t27 -41t53.5 -31.5t73 -25t102 -26q92 -22 150 -39.5t114 -42.5t86 -54t48 -70t18 -95 q0 -146 -113.5 -232.5t-302.5 -86.5z" />
<glyph unicode="&#x21a;" horiz-adv-x="1257" d="M530 -338v70q23 0 33 8.5t10 28.5v131h119v-131q0 -59 -42.5 -83t-119.5 -24zM1219 1454v-127h-519v-1327h-143v1327h-518v127h1180z" />
<glyph unicode="&#x21b;" horiz-adv-x="679" d="M319 -338v70q23 0 33 8.5t10 28.5v131h119v-131q0 -59 -42.5 -83t-119.5 -24zM629 164l37 -113q-1 -1 -20.5 -9.5t-32 -13.5t-37.5 -13.5t-46 -13.5t-50 -9t-56 -4q-96 0 -160.5 53.5t-64.5 151.5v763h-148v111h148v360h139v-360h246v-111h-246v-725q4 -56 39.5 -85 t89.5 -29q87 0 162 47z" />
<glyph unicode="&#x237;" horiz-adv-x="438" d="M-25 -371q-147 0 -233 80l68 94q54 -49 149 -49q74 0 132.5 55.5t58.5 135.5v1122h139v-1114q0 -137 -95 -230.5t-219 -93.5z" />
<glyph unicode="&#x259;" horiz-adv-x="1202" d="M594 -20q-151 0 -274 74.5t-191.5 200t-69.5 275.5q0 32 4 52h912q-12 170 -125 282.5t-268 112.5q-106 0 -198.5 -53.5t-129.5 -137.5l-121 33q50 117 175.5 191.5t279.5 74.5q150 0 273.5 -76t192 -204t68.5 -279q0 -111 -39.5 -211t-108 -174t-168 -117.5 t-212.5 -43.5zM594 86q156 0 265 113.5t120 285.5h-782q10 -173 125 -286t272 -113z" />
<glyph unicode="&#x2bc;" horiz-adv-x="751" d="M549 1495l-178 -225l-92 35l77 120v70h193z" />
<glyph unicode="&#x2c6;" horiz-adv-x="675" d="M164 1278l-78 43l201 174h102l203 -174l-80 -43l-174 129z" />
<glyph unicode="&#x2c7;" horiz-adv-x="675" d="M86 1454l78 41l174 -129l174 129l80 -41l-203 -176h-102z" />
<glyph unicode="&#x2d8;" horiz-adv-x="577" d="M289 1360q43 0 77 39t40 96h83q0 -87 -58 -147t-142 -60q-85 0 -143 59.5t-58 147.5h86q0 -52 35.5 -93.5t79.5 -41.5z" />
<glyph unicode="&#x2d9;" horiz-adv-x="331" d="M229 1296h-127v199h127v-199z" />
<glyph unicode="&#x2da;" horiz-adv-x="507" d="M102 1362q0 59 42.5 96t109.5 37t109.5 -37t42.5 -96q0 -61 -42.5 -98t-109.5 -37t-109.5 37t-42.5 98zM254 1440q-35 0 -58.5 -21.5t-23.5 -56.5q0 -34 23.5 -57t58.5 -23q33 0 58.5 23t25.5 57q0 35 -24 56.5t-60 21.5z" />
<glyph unicode="&#x2db;" horiz-adv-x="491" d="M266 -358q-74 15 -113.5 54.5t-39.5 94.5q0 117 209 244l45 -35q-90 -57 -129 -101t-39 -89q0 -76 106 -91z" />
<glyph unicode="&#x2dc;" horiz-adv-x="831" d="M541 1307q-52 0 -99.5 20.5t-87.5 41t-75 20.5q-31 0 -53.5 -13.5t-32 -32.5t-13.5 -32.5t-4 -20.5h-86q0 16 8 43t26.5 62.5t58.5 60.5t93 25q48 0 92.5 -21.5t86.5 -43t84 -21.5q30 0 52.5 10t34 23t19 28.5t9 24.5t1.5 14h86q0 -15 -8.5 -41.5t-28.5 -61.5t-62.5 -60 t-100.5 -25z" />
<glyph unicode="&#x2dd;" horiz-adv-x="667" d="M336 1495l-172 -225l-76 35l117 190h131zM592 1495l-170 -225l-78 35l117 190h131z" />
<glyph unicode="&#x3bc;" horiz-adv-x="1228" d="M150 -434v1501h139v-602q0 -183 62.5 -273t189.5 -90q123 0 229.5 80.5t153.5 212.5v672h139v-887q0 -57 51 -57v-123q-40 -6 -59 -6q-47 0 -80 28.5t-33 71.5v148q-57 -112 -170 -187t-237 -75q-96 0 -159.5 47t-92.5 127v-588h-133z" />
<glyph unicode="&#x1e44;" horiz-adv-x="1583" d="M860 1679h-127v199h127v-199zM1276 0l-950 1188v-1188h-142v1454h111l962 -1210v1208h142v-1452h-123z" />
<glyph unicode="&#x1e45;" horiz-adv-x="1185" d="M666 1296h-127v199h127v-199zM1047 625v-625h-140v596q0 188 -55 275t-172 87q-126 0 -239 -87t-152 -218v-653h-139v1067h126v-242q65 117 188.5 188.5t264.5 71.5q88 0 150.5 -31.5t99 -93.5t52.5 -144t16 -191z" />
<glyph unicode="&#x1e80;" horiz-adv-x="2142" d="M981 823l-254 621h137l205 -516l207 516h135l-254 -621l279 -657l526 1288h156l-615 -1454h-127l-305 719l-307 -719h-127l-612 1454h151l529 -1288zM1057 1653l-178 225h145l123 -190z" />
<glyph unicode="&#x1e81;" horiz-adv-x="1669" d="M1114 143l387 924h135l-456 -1067h-117l-227 545l-228 -545h-116l-457 1067h133l389 -924l203 488l-182 434h118l140 -348l137 348h119l-181 -434zM823 1270l-178 225h146l122 -190z" />
<glyph unicode="&#x1e82;" horiz-adv-x="2142" d="M1257 1878l-176 -225l-92 35l121 190h147zM981 823l-254 621h137l205 -516l207 516h135l-254 -621l279 -657l526 1288h156l-615 -1454h-127l-305 719l-307 -719h-127l-612 1454h151l529 -1288z" />
<glyph unicode="&#x1e83;" horiz-adv-x="1669" d="M1024 1495l-176 -225l-92 35l121 190h147zM1114 143l387 924h135l-456 -1067h-117l-227 545l-228 -545h-116l-457 1067h133l389 -924l203 488l-182 434h118l140 -348l137 348h119l-181 -434z" />
<glyph unicode="&#x1e84;" horiz-adv-x="2142" d="M975 1679h-119v193h119v-193zM1280 1679h-119v193h119v-193zM981 823l-254 621h137l205 -516l207 516h135l-254 -621l279 -657l526 1288h156l-615 -1454h-127l-305 719l-307 -719h-127l-612 1454h151l529 -1288z" />
<glyph unicode="&#x1e85;" horiz-adv-x="1669" d="M741 1296h-118v193h118v-193zM1047 1296h-119v193h119v-193zM1114 143l387 924h135l-456 -1067h-117l-227 545l-228 -545h-116l-457 1067h133l389 -924l203 488l-182 434h118l140 -348l137 348h119l-181 -434z" />
<glyph unicode="&#x1ebc;" horiz-adv-x="1255" d="M326 127h835v-127h-977v1454h959v-127h-817v-524h712v-121h-712v-555zM817 1690q-52 0 -99.5 20.5t-87.5 41t-75 20.5q-31 0 -53.5 -13.5t-32 -33t-13 -32.5t-3.5 -20h-86q0 16 8 43t26.5 62.5t58.5 60.5t93 25q48 0 92.5 -21.5t86 -43t83.5 -21.5q30 0 53 10t34.5 23 t18.5 28.5t9 24.5t2 14h86q0 -11 -4.5 -30t-18.5 -47.5t-35 -52.5t-58.5 -41t-84.5 -17z" />
<glyph unicode="&#x1ebd;" horiz-adv-x="1202" d="M616 -20q-152 0 -275.5 76t-192 203t-68.5 278q0 148 68.5 273.5t191.5 200t274 74.5t273 -75.5t188.5 -200t67.5 -270.5q0 -40 -4 -56h-912q12 -171 125.5 -284t268.5 -113q107 0 199 53.5t128 139.5l121 -33q-50 -118 -175 -192t-278 -74zM223 590h787 q-13 169 -125.5 278t-270.5 109t-269.5 -109.5t-121.5 -277.5zM735 1307q-52 0 -99.5 20.5t-87.5 41t-75 20.5q-31 0 -53.5 -13.5t-32 -33t-13 -32.5t-3.5 -20h-86q0 16 8 43t26.5 62.5t58.5 60.5t93 25q48 0 92.5 -21.5t86 -43t83.5 -21.5q30 0 53 10t34.5 23t18.5 28.5 t9 24.5t2 14h86q0 -11 -4.5 -30t-18.5 -47.5t-35 -52.5t-58.5 -41t-84.5 -17z" />
<glyph unicode="&#x1ef2;" horiz-adv-x="1298" d="M16 1454h156l477 -782l479 782h156l-565 -913v-541h-141v545zM637 1653l-178 225h145l123 -190z" />
<glyph unicode="&#x1ef3;" horiz-adv-x="1110" d="M211 -453v123q24 -4 41 -4q50 0 78 12q23 9 53 68t109 254l-465 1067h145l395 -938l365 938h133l-555 -1376q-32 -77 -85 -113.5t-144 -36.5q-40 0 -70 6zM555 1270l-178 225h145l123 -190z" />
<glyph unicode="&#x1ef8;" horiz-adv-x="1298" d="M16 1454h156l477 -782l479 782h156l-565 -913v-541h-141v545zM774 1690q-52 0 -99.5 20.5t-87.5 41t-75 20.5q-31 0 -53.5 -13.5t-32 -33t-13 -32.5t-3.5 -20h-86q0 16 8 43t26.5 62.5t58.5 60.5t93 25q48 0 92.5 -21.5t86 -43t83.5 -21.5q30 0 53 10t34.5 23t18.5 28.5 t9 24.5t2 14h86q0 -11 -4.5 -30t-18.5 -47.5t-35 -52.5t-58.5 -41t-84.5 -17z" />
<glyph unicode="&#x1ef9;" horiz-adv-x="1110" d="M211 -453v123q24 -4 41 -4q50 0 78 12q23 9 53 68t109 254l-465 1067h145l395 -938l365 938h133l-555 -1376q-32 -77 -85 -113.5t-144 -36.5q-40 0 -70 6zM692 1307q-52 0 -99.5 20.5t-87.5 41t-75 20.5q-31 0 -53.5 -13.5t-32 -33t-13 -32.5t-3.5 -20h-86q0 16 8 43 t26.5 62.5t58.5 60.5t93 25q48 0 92.5 -21.5t86 -43t83.5 -21.5q30 0 53 10t34.5 23t18.5 28.5t9 24.5t2 14h86q0 -11 -4.5 -30t-18.5 -47.5t-35 -52.5t-58.5 -41t-84.5 -17z" />
<glyph unicode="&#x2000;" horiz-adv-x="955" />
<glyph unicode="&#x2001;" horiz-adv-x="1911" />
<glyph unicode="&#x2002;" horiz-adv-x="955" />
<glyph unicode="&#x2003;" horiz-adv-x="1911" />
<glyph unicode="&#x2004;" horiz-adv-x="637" />
<glyph unicode="&#x2005;" horiz-adv-x="477" />
<glyph unicode="&#x2006;" horiz-adv-x="318" />
<glyph unicode="&#x2007;" horiz-adv-x="318" />
<glyph unicode="&#x2008;" horiz-adv-x="238" />
<glyph unicode="&#x2009;" horiz-adv-x="382" />
<glyph unicode="&#x200a;" horiz-adv-x="106" />
<glyph unicode="&#x2010;" horiz-adv-x="866" d="M731 494h-596v129h596v-129z" />
<glyph unicode="&#x2011;" horiz-adv-x="866" d="M731 494h-596v129h596v-129z" />
<glyph unicode="&#x2012;" horiz-adv-x="866" d="M731 494h-596v129h596v-129z" />
<glyph unicode="&#x2013;" horiz-adv-x="1167" d="M1034 494h-899v129h899v-129z" />
<glyph unicode="&#x2014;" horiz-adv-x="1845" d="M1712 494h-1577v129h1577v-129z" />
<glyph unicode="&#x2018;" horiz-adv-x="405" d="M281 1225v-107q-67 0 -114.5 32.5t-47.5 98.5v246h119v-227q0 -24 13 -33.5t30 -9.5z" />
<glyph unicode="&#x2019;" horiz-adv-x="405" d="M109 1389v106q67 0 114 -32.5t47 -98.5v-246h-118v228q0 24 -13 33.5t-30 9.5z" />
<glyph unicode="&#x201a;" horiz-adv-x="419" d="M113 -137v106q17 0 30 9.5t13 33.5v189h118v-209q0 -65 -47.5 -97t-113.5 -32z" />
<glyph unicode="&#x201c;" horiz-adv-x="667" d="M281 1225v-107q-67 0 -114.5 32.5t-47.5 98.5v246h119v-227q0 -24 13 -33.5t30 -9.5zM543 1225v-107q-67 0 -114.5 32.5t-47.5 98.5v246h119v-227q0 -24 13 -33.5t30 -9.5z" />
<glyph unicode="&#x201d;" horiz-adv-x="667" d="M109 1389v106q67 0 114 -32.5t47 -98.5v-246h-118v228q0 24 -13 33.5t-30 9.5zM371 1389v106q67 0 114 -32.5t47 -98.5v-246h-118v228q0 24 -13 33.5t-30 9.5z" />
<glyph unicode="&#x201e;" horiz-adv-x="659" d="M113 -137v106q17 0 30 9.5t13 33.5v189h118v-209q0 -65 -47.5 -97t-113.5 -32zM352 -137v106q17 0 30 9.5t13 33.5v189h119v-209q0 -65 -48 -97t-114 -32z" />
<glyph unicode="&#x2020;" horiz-adv-x="847" d="M492 -266h-134v758h-270v126h270v969h134v-969h268v-126h-268v-758z" />
<glyph unicode="&#x2021;" horiz-adv-x="866" d="M502 -266h-135v592h-271v129h271v225h-271v129h271v778h135v-778h268v-129h-268v-225h268v-129h-268v-592z" />
<glyph unicode="&#x2022;" horiz-adv-x="727" d="M547 709q0 -76 -53.5 -130.5t-128.5 -54.5t-130 54.5t-55 130.5q0 74 55 128t130 54t128.5 -54t53.5 -128z" />
<glyph unicode="&#x2026;" horiz-adv-x="937" d="M254 0h-119v201h119v-201zM528 0h-118v201h118v-201zM803 0h-119v201h119v-201z" />
<glyph unicode="&#x202f;" horiz-adv-x="382" />
<glyph unicode="&#x2030;" horiz-adv-x="2191" d="M408 887q-128 0 -218 86t-90 207q0 123 90 209t218 86q127 0 216 -86t89 -209q0 -122 -89 -207.5t-216 -85.5zM408 967q82 0 141 63.5t59 149.5q0 88 -60 150.5t-140 62.5q-84 0 -143.5 -63.5t-59.5 -149.5q0 -87 60.5 -150t142.5 -63zM1094 -20q-126 0 -216 85.5 t-90 208.5q0 121 90 207t216 86q127 0 217 -85.5t90 -207.5q0 -123 -89.5 -208.5t-217.5 -85.5zM1094 61q84 0 143 63t59 150t-61 150t-141 63q-83 0 -142 -63.5t-59 -149.5q0 -89 59.5 -151t141.5 -62zM1817 -20q-128 0 -218 85.5t-90 208.5q0 121 90 207t218 86 q127 0 216 -85.5t89 -207.5q0 -123 -88.5 -208.5t-216.5 -85.5zM1817 61q83 0 141.5 63t58.5 150t-60 150t-140 63q-84 0 -143.5 -63.5t-59.5 -149.5q0 -89 59.5 -151t143.5 -62zM221 -8l-71 63l573 697l555 710l72 -61l-570 -696z" />
<glyph unicode="&#x2039;" horiz-adv-x="731" d="M90 489v76l510 365v-121l-395 -279l395 -274v-121z" />
<glyph unicode="&#x203a;" horiz-adv-x="731" d="M639 565v-76l-508 -354v121l395 274l-395 279v121z" />
<glyph unicode="&#x2044;" horiz-adv-x="315" d="M-371 -8l-71 63l573 697l555 710l72 -61l-570 -696z" />
<glyph unicode="&#x205f;" horiz-adv-x="477" />
<glyph unicode="&#x2070;" horiz-adv-x="937" d="M471 668q-93 0 -170.5 38.5t-124.5 99.5t-72.5 132.5t-25.5 142.5q0 75 27.5 148t77 132.5t125 96.5t163.5 37q92 0 168 -39.5t123 -101.5t72.5 -133t25.5 -140q0 -76 -27.5 -149.5t-76 -132.5t-123 -95t-162.5 -36zM172 1081q0 -79 33 -151t103 -122t163 -50 q72 0 130.5 31t94 79.5t54 104t18.5 108.5q0 78 -34 151t-103.5 123t-159.5 50q-72 0 -131.5 -31.5t-94.5 -80.5t-54 -104t-19 -108z" />
<glyph unicode="&#x2074;" horiz-adv-x="786" d="M608 678h-92v211h-467v86l496 520h63v-518h117v-88h-117v-211zM518 1370l-371 -393h371v393z" />
<glyph unicode="&#x2075;" horiz-adv-x="772" d="M391 1198q133 0 222 -72.5t89 -185.5q0 -121 -95 -196.5t-236 -75.5q-100 0 -181.5 41.5t-121.5 111.5l61 51q37 -55 102 -86.5t146 -31.5q100 0 165.5 51.5t65.5 134.5q0 86 -68.5 135t-158.5 49q-61 0 -119 -26.5t-90 -69.5h-86q9 45 56.5 238.5t52.5 228.5h456v-90 h-387l-67 -268q74 61 194 61z" />
<glyph unicode="&#x2076;" horiz-adv-x="829" d="M762 942q0 -118 -98.5 -200.5t-239.5 -82.5q-153 0 -246.5 94.5t-93.5 256.5q0 238 94 361.5t258 123.5q93 0 168 -38.5t111 -106.5l-56 -60q-28 53 -90.5 86t-136.5 33q-119 0 -190 -86.5t-72 -239.5q30 60 103.5 97t156.5 37q141 0 236.5 -79.5t95.5 -195.5zM426 743 q101 0 174.5 58.5t73.5 138.5q0 82 -73.5 139.5t-176.5 57.5q-101 0 -174.5 -57.5t-73.5 -137.5q0 -81 74 -140t176 -59z" />
<glyph unicode="&#x2077;" horiz-adv-x="720" d="M127 678l438 727h-510v90h658l-482 -817h-104z" />
<glyph unicode="&#x2078;" horiz-adv-x="815" d="M735 905q0 -104 -97 -170.5t-235 -66.5q-140 0 -232.5 70.5t-92.5 170.5q0 74 54 126.5t134 80.5q-68 24 -111.5 67.5t-43.5 102.5q0 92 91 150.5t206 58.5t204.5 -57.5t89.5 -149.5q0 -60 -43.5 -104.5t-113.5 -67.5q86 -28 138 -82t52 -129zM643 915q0 71 -73 115.5 t-164 44.5q-92 0 -164 -45.5t-72 -114.5q0 -48 37 -84.5t90.5 -54.5t110.5 -18q93 0 164 44t71 113zM203 1280q0 -59 62.5 -94t140.5 -35t142 35.5t64 93.5q0 57 -61.5 92t-144.5 35t-143 -35t-60 -92z" />
<glyph unicode="&#x2079;" horiz-adv-x="829" d="M70 1212q0 119 97.5 201t238.5 82q153 0 247.5 -94t94.5 -256q0 -239 -94.5 -362.5t-258.5 -123.5q-93 0 -168 39.5t-112 108.5l57 57q28 -54 89 -86.5t136 -32.5q119 0 190.5 86.5t71.5 239.5q-29 -60 -102.5 -97.5t-157.5 -37.5q-139 0 -234 80t-95 196zM403 1411 q-100 0 -172.5 -58.5t-72.5 -138.5q0 -79 74 -137.5t174 -58.5q101 0 174 58t73 136q0 80 -74.5 139.5t-175.5 59.5z" />
<glyph unicode="&#x2080;" horiz-adv-x="937" d="M471 -10q-93 0 -170.5 38.5t-124.5 99.5t-72.5 132.5t-25.5 142.5q0 75 27.5 148t77 132.5t125 96.5t163.5 37q92 0 168 -39.5t123 -101.5t72.5 -133t25.5 -140q0 -76 -27.5 -149.5t-76 -132.5t-123 -95t-162.5 -36zM172 403q0 -79 33 -151t103 -122t163 -50 q72 0 130.5 31t94 80t54 104t18.5 108q0 78 -34 151t-103.5 123t-159.5 50q-73 0 -132 -31t-94 -80t-54 -104.5t-19 -108.5z" />
<glyph unicode="&#x2081;" horiz-adv-x="585" d="M373 90h170v-90h-445v90h183v633q-26 -31 -93.5 -64.5t-117.5 -33.5v90q41 0 93.5 28t84 54.5t33.5 31.5h92v-739z" />
<glyph unicode="&#x2082;" horiz-adv-x="802" d="M717 0h-643q0 154 61.5 239t196.5 138q16 6 53.5 19t57.5 21t51 21.5t48 27t35.5 31.5t26.5 40.5t8 48.5q0 66 -54.5 109.5t-154.5 43.5q-156 0 -260 -114l-61 65q12 15 35 34t63.5 44.5t103 42t132.5 16.5q144 0 221.5 -67t77.5 -176q0 -28 -6.5 -52.5t-16 -44 t-27.5 -38t-32 -30.5t-39.5 -26t-40 -21t-44 -17.5t-41 -14t-40.5 -12.5q-124 -39 -179.5 -105.5t-55.5 -132.5h524v-90z" />
<glyph unicode="&#x2083;" horiz-adv-x="802" d="M391 -10q-129 0 -215.5 49t-101.5 133l55 57q6 -55 81 -102t181 -47q101 0 169.5 40.5t68.5 104.5q0 72 -82.5 113t-222.5 41h-48v82h48q132 0 204 34.5t72 102.5q0 64 -63.5 104.5t-153.5 40.5q-83 0 -144.5 -30.5t-93.5 -83.5l-63 69q36 59 119.5 94t181.5 35 q135 0 225 -64t90 -159q0 -140 -186 -182q96 -13 153.5 -71.5t57.5 -137.5q0 -102 -96.5 -162.5t-235.5 -60.5z" />
<glyph unicode="&#x2084;" horiz-adv-x="786" d="M608 0h-92v211h-467v86l496 520h63v-516h117v-90h-117v-211zM518 692l-371 -391h371v391z" />
<glyph unicode="&#x2085;" horiz-adv-x="770" d="M389 520q134 0 222.5 -72.5t88.5 -187.5q0 -118 -95.5 -194t-235.5 -76q-99 0 -181 41.5t-122 109.5l61 54q37 -55 102.5 -87t145.5 -32q99 0 165 52t66 134q0 86 -68.5 135t-158.5 49q-61 0 -119 -26.5t-90 -69.5h-86q9 45 56.5 238.5t52.5 228.5h456v-90h-387l-67 -266 q71 59 194 59z" />
<glyph unicode="&#x2086;" horiz-adv-x="829" d="M762 270q0 -117 -98.5 -198.5t-239.5 -81.5q-153 0 -246.5 94t-93.5 256q0 237 94 360t258 123q93 0 168 -38.5t111 -106.5l-56 -60q-28 54 -90 86.5t-137 32.5q-119 0 -190 -85.5t-72 -239.5q30 61 103.5 98t156.5 37q140 0 236 -80.5t96 -196.5zM426 74q101 0 174.5 58 t73.5 136q0 82 -73.5 140.5t-176.5 58.5q-101 0 -174.5 -58.5t-73.5 -138.5q0 -79 74.5 -137.5t175.5 -58.5z" />
<glyph unicode="&#x2087;" horiz-adv-x="720" d="M127 0l440 727h-512v90h658l-482 -817h-104z" />
<glyph unicode="&#x2088;" horiz-adv-x="815" d="M735 227q0 -104 -97 -170.5t-235 -66.5q-140 0 -232.5 70.5t-92.5 170.5q0 74 54.5 127.5t133.5 79.5q-68 24 -111.5 67.5t-43.5 102.5q0 93 91 151t206 58t204.5 -57.5t89.5 -149.5q0 -60 -43.5 -104.5t-113.5 -67.5q86 -28 138 -82t52 -129zM643 238q0 71 -73 115 t-164 44q-93 0 -164.5 -45.5t-71.5 -115.5q0 -69 74 -112.5t164 -43.5q92 0 163.5 44.5t71.5 113.5zM203 600q0 -57 63 -92t140 -35q78 0 142 36t64 93q0 58 -62 93.5t-144 35.5q-83 0 -143 -36.5t-60 -94.5z" />
<glyph unicode="&#x2089;" horiz-adv-x="829" d="M70 543q0 117 97.5 198.5t238.5 81.5q153 0 247.5 -94t94.5 -256q0 -237 -94.5 -360t-258.5 -123q-93 0 -168.5 38.5t-111.5 106.5l57 60q28 -54 89 -86.5t136 -32.5q119 0 190.5 86t71.5 237q-29 -59 -102.5 -96t-157.5 -37q-139 0 -234 80t-95 197zM403 739 q-100 0 -172.5 -58t-72.5 -138q0 -79 74 -137t174 -58q101 0 174 57.5t73 137.5q0 79 -74.5 137.5t-175.5 58.5z" />
<glyph unicode="&#x20ac;" horiz-adv-x="1644" d="M166 852h123q18 119 72.5 227t139 194.5t206.5 137.5t264 51q188 0 327 -86t209 -231l-114 -70q-33 70 -83 121.5t-108 80.5t-117.5 42.5t-121.5 13.5q-109 0 -202.5 -39.5t-158.5 -107.5t-108 -153t-60 -181h692l-36 -88h-666q0 -80 6 -127h623l-39 -88h-565 q52 -188 194.5 -310t325.5 -122q86 0 168.5 27.5t159 90t120.5 152.5l119 -61q-45 -104 -140.5 -182.5t-208 -117t-226.5 -38.5q-121 0 -231.5 45.5t-194 123t-143.5 178.5t-89 214h-233l36 88h181q-6 50 -6 127h-152z" />
<glyph unicode="&#x2122;" horiz-adv-x="1484" d="M608 1458v-98h-194v-492h-99v492h-194v98h487zM1014 1071l174 383h137v-586h-98v445l-172 -359h-82l-172 359v-445h-99v586h136z" />
<glyph unicode="&#x2153;" horiz-adv-x="1775" d="M1360 -10q-129 0 -216 49t-102 133l56 57q6 -55 81 -102t181 -47q101 0 169 40.5t68 104.5q0 72 -82.5 113t-222.5 41h-47v82h47q132 0 204.5 34.5t72.5 102.5q0 64 -63.5 104.5t-153.5 40.5q-83 0 -144.5 -30.5t-93.5 -83.5l-63 69q36 59 119.5 94t181.5 35 q135 0 225 -64t90 -159q0 -140 -186 -182q96 -13 153.5 -71.5t57.5 -137.5q0 -102 -96.5 -162.5t-235.5 -60.5zM389 760h154v-92h-414v92h166v633q-25 -31 -87.5 -66t-107.5 -35v92q38 0 86.5 27.5t77.5 53.5t31 32h94v-737zM283 -8l-72 63l573 697l555 710l72 -61 l-569 -696z" />
<glyph unicode="&#x2154;" horiz-adv-x="1806" d="M1386 -10q-129 0 -215.5 49t-101.5 133l55 57q6 -55 81 -102t181 -47q101 0 169.5 40.5t68.5 104.5q0 72 -82.5 113t-222.5 41h-47v82h47q132 0 204 34.5t72 102.5q0 64 -63.5 104.5t-153.5 40.5q-82 0 -143.5 -30.5t-93.5 -83.5l-64 69q36 59 119.5 94t181.5 35 q135 0 225.5 -64t90.5 -159q0 -140 -187 -182q96 -13 153.5 -71.5t57.5 -137.5q0 -102 -96.5 -162.5t-235.5 -60.5zM715 670h-617q0 153 59 236.5t193 137.5q18 7 53.5 20t55.5 21.5t50 22t47.5 27t35 31.5t25.5 40.5t8 48.5q0 66 -53 109t-152 43q-151 0 -254 -113l-60 64 q10 15 33 34.5t62.5 45t100.5 42.5t130 17q140 0 215.5 -67.5t75.5 -172.5q0 -34 -9 -64t-22 -51.5t-35.5 -41.5t-41 -32t-47 -25t-45.5 -19t-44.5 -15t-36.5 -12q-119 -41 -166 -101.5t-47 -137.5h486v-88zM393 -8l-71 63l573 697l555 710l72 -61l-570 -696z" />
<glyph unicode="&#x215b;" horiz-adv-x="1771" d="M1688 227q0 -104 -97 -170.5t-235 -66.5q-140 0 -233 70.5t-93 170.5q0 74 55 127.5t134 79.5q-68 24 -112 67.5t-44 102.5q0 93 91 151t206 58t205 -57.5t90 -149.5q0 -60 -44 -104.5t-114 -67.5q86 -28 138.5 -82t52.5 -129zM1595 238q0 71 -73 115t-164 44 q-93 0 -164.5 -45.5t-71.5 -115.5q0 -69 74 -112.5t164 -43.5q92 0 163.5 44.5t71.5 113.5zM1155 600q0 -57 63 -92t140 -35q78 0 142.5 36t64.5 93t-62.5 93t-144.5 36q-83 0 -143 -36.5t-60 -94.5zM387 760h154v-92h-414v92h166v633q-25 -31 -87.5 -66t-107.5 -35v92 q38 0 86.5 27.5t77.5 53.5t31 32h94v-737zM307 -8l-71 63l573 697l555 710l72 -61l-570 -696z" />
<glyph unicode="&#x215c;" horiz-adv-x="1785" d="M412 657q-128 0 -215.5 50t-102.5 133l56 59q6 -55 81 -102t181 -47q102 0 169.5 40t67.5 105q0 71 -82 111.5t-223 40.5h-47v83h47q131 0 204 35t73 101t-63.5 106.5t-154.5 40.5q-82 0 -143.5 -31t-93.5 -84l-64 70q36 59 119.5 94t181.5 35q135 0 225.5 -64t90.5 -161 q0 -141 -187 -180q96 -13 153.5 -71.5t57.5 -137.5q0 -102 -96 -164t-235 -62zM1700 227q0 -104 -97 -170.5t-235 -66.5q-140 0 -233 70.5t-93 170.5q0 74 55 127.5t134 79.5q-68 24 -112 67.5t-44 102.5q0 93 91 151t206 58t205 -57.5t90 -149.5q0 -60 -44 -104.5 t-114 -67.5q86 -28 138.5 -82t52.5 -129zM1608 238q0 71 -73.5 115t-164.5 44q-92 0 -163.5 -45t-71.5 -116q0 -69 73.5 -112.5t163.5 -43.5q92 0 164 44.5t72 113.5zM1167 600q0 -57 63 -92t140 -35q78 0 142.5 36t64.5 93t-62.5 93t-144.5 36q-83 0 -143 -36.5t-60 -94.5z M360 -8l-71 63l573 697l555 710l72 -61l-569 -696z" />
<glyph unicode="&#x215d;" horiz-adv-x="1794" d="M1710 227q0 -104 -97 -170.5t-235 -66.5q-140 0 -232.5 70.5t-92.5 170.5q0 74 54.5 127.5t133.5 79.5q-68 24 -112 67.5t-44 102.5q0 93 91 151t206 58t205 -57.5t90 -149.5q0 -60 -43.5 -104.5t-113.5 -67.5q86 -28 138 -82t52 -129zM1618 238q0 71 -73.5 115 t-164.5 44q-92 0 -163.5 -45t-71.5 -116q0 -69 73.5 -112.5t163.5 -43.5q92 0 164 44.5t72 113.5zM1178 600q0 -57 62.5 -92t139.5 -35q78 0 142.5 36t64.5 93t-62.5 93t-144.5 36q-83 0 -142.5 -36.5t-59.5 -94.5zM406 1198q133 0 222 -72.5t89 -185.5q0 -121 -95.5 -196.5 t-236.5 -75.5q-100 0 -181.5 41.5t-121.5 111.5l61 51q37 -55 102 -86.5t146 -31.5q100 0 166 51.5t66 134.5q0 58 -34.5 101t-85 63t-108.5 20q-61 0 -119 -26.5t-90 -69.5h-86q9 45 56.5 238.5t52.5 228.5h457v-90h-387l-68 -268q74 61 195 61zM350 -8l-71 63l573 697 l555 710l72 -61l-570 -696z" />
<glyph unicode="&#x215e;" horiz-adv-x="1753" d="M1673 227q0 -104 -97 -170.5t-235 -66.5q-140 0 -232.5 70.5t-92.5 170.5q0 74 54.5 127.5t133.5 79.5q-68 24 -111.5 67.5t-43.5 102.5q0 93 91 151t206 58t204.5 -57.5t89.5 -149.5q0 -60 -43.5 -104.5t-113.5 -67.5q86 -28 138 -82t52 -129zM1581 238q0 71 -73.5 115 t-164.5 44q-92 0 -163.5 -45t-71.5 -116q0 -69 74 -112.5t164 -43.5q92 0 163.5 44.5t71.5 113.5zM1141 600q0 -57 62.5 -92t139.5 -35q78 0 142.5 36t64.5 93t-62.5 93t-144.5 36q-83 0 -142.5 -36.5t-59.5 -94.5zM217 -8l-72 63l574 697l555 710l72 -61l-570 -696z M164 678l438 727h-510v90h658l-482 -817h-104z" />
<glyph unicode="&#x2212;" horiz-adv-x="1114" d="M969 547h-826v115h826v-115z" />
<glyph unicode="&#x2215;" horiz-adv-x="1187" d="M61 -8l-86 69l1155 1401l84 -69z" />
<glyph unicode="&#x2219;" horiz-adv-x="387" d="M254 504h-119v229h119v-229z" />
<glyph unicode="&#x25fc;" horiz-adv-x="1064" d="M0 1065h1065v-1065h-1065v1065z" />
<glyph unicode="&#xf6c3;" horiz-adv-x="315" d="M84 -338v70q23 0 33 8.5t10 28.5v131h119v-131q0 -59 -42.5 -83t-119.5 -24z" />
<glyph unicode="&#xfb06;" horiz-adv-x="1654" d="M1606 164l34 -113q-130 -63 -237 -63q-99 0 -162 53t-63 152v763h-150v111h150q0 234 -36 310.5t-157 76.5q-233 0 -233 -207q0 -68 27.5 -144t47 -108t35.5 -53l-65 -82q-113 121 -299 121q-73 0 -131.5 -17.5t-100 -63.5t-41.5 -116q0 -34 10.5 -61.5t24.5 -46 t40.5 -33.5t47 -23.5t57 -16t56 -10t57.5 -7.5q50 -7 82.5 -12t80 -16.5t78.5 -24.5t66 -35t55.5 -49.5t34 -66.5t13.5 -87q0 -80 -35.5 -142.5t-95 -99t-131 -55t-150.5 -18.5q-126 0 -243.5 43.5t-198.5 111.5l61 96q180 -145 379 -145q53 0 101 11t90.5 33t68 62t25.5 93 q0 26 -7.5 48t-18 38.5t-31.5 30.5t-36 23.5t-44 18t-44.5 12.5t-49 9.5t-44.5 6.5t-43 5q-68 8 -118 18t-103 30.5t-86 50t-54.5 77.5t-21.5 111q0 83 34.5 147t92.5 100.5t125.5 55t141.5 18.5q153 0 253 -63q-5 10 -17 36t-16.5 37t-13 33t-11.5 37.5t-6 38t-3 45.5 q0 126 80 203.5t258 77.5q47 0 85.5 -6.5t67.5 -16.5t51.5 -30t38.5 -40t26.5 -52.5t17 -62t9.5 -75t4 -84t1 -96.5h242v-111h-242v-725q0 -56 36.5 -85t92.5 -29q75 0 160 47z" />
<glyph horiz-adv-x="1200" d="M174 0h-139l512 1122h106l508 -1122h-135l-156 338h-542zM838 451l-238 512l-242 -512h480z" />
<glyph horiz-adv-x="1183" d="M1087 289q0 -126 -100.5 -207.5t-245.5 -81.5h-575v1122h592q123 0 199.5 -86.5t76.5 -199.5q0 -86 -45.5 -157t-126.5 -104q103 -29 164 -105.5t61 -180.5zM958 311q0 81 -59 142t-145 61h-459v-403h446q89 0 153 60.5t64 139.5zM717 1008h-422v-390h412q86 0 144 57.5 t58 137.5q0 84 -54 139.5t-138 55.5z" />
<glyph horiz-adv-x="1224" d="M92 569q0 103 39.5 201.5t111.5 179t184.5 129.5t246.5 49q158 0 275.5 -67t176.5 -178l-102 -66q-37 70 -98 115.5t-124.5 62.5t-133.5 17q-105 0 -192 -39.5t-141.5 -104t-84 -143.5t-29.5 -162q0 -90 34.5 -173.5t94 -146t144 -100t178.5 -37.5q111 0 213.5 51 t156.5 152l109 -59q-59 -119 -198.5 -189.5t-288.5 -70.5q-122 0 -230.5 50t-182 131.5t-116.5 186t-43 211.5z" />
<glyph horiz-adv-x="1267" d="M586 0h-420v1122h420q142 0 255.5 -43.5t185 -120t109.5 -177.5t38 -218q0 -256 -160.5 -409.5t-427.5 -153.5zM1042 563q0 200 -120.5 322.5t-335.5 122.5h-291v-893h291q218 0 337 124.5t119 323.5z" />
<glyph horiz-adv-x="1091" d="M295 115h698v-115h-827v1122h811v-114h-682v-383h596v-107h-596v-403z" />
<glyph horiz-adv-x="1038" d="M295 0h-129v1122h805v-114h-676v-390h571v-110h-571v-508z" />
<glyph horiz-adv-x="1505" d="M782 -10q-147 0 -277 62.5t-219.5 165.5t-141.5 237.5t-52 275.5q0 142 51.5 275t140.5 234.5t219 162.5t277 61q178 0 322 -84.5t233 -228.5l-110 -92q-71 117 -188 196.5t-265 79.5q-119 0 -221.5 -52.5t-170 -139t-106 -195.5t-38.5 -223t39 -222.5t107 -194 t171 -137.5t221 -52q101 0 192.5 39t157.5 104.5t110.5 149t59.5 174.5h-426v129h580q0 -5 -1 -41t-1 -43q-12 -127 -66.5 -243.5t-139.5 -204.5t-204.5 -140.5t-253.5 -52.5z" />
<glyph horiz-adv-x="1269" d="M1047 0v156q-167 -164 -385 -164q-119 0 -226.5 49t-182 129t-118 183.5t-43.5 211.5q0 149 72 277.5t202.5 207t290.5 78.5q171 0 287 -65t178 -178l-100 -68q-56 99 -151.5 148t-217.5 49q-127 0 -227.5 -65.5t-152.5 -168t-52 -219.5q0 -122 59 -225.5t163 -165 t227 -61.5q209 0 377 180v168h-269v98h379v-555h-110z" />
<glyph horiz-adv-x="1304" d="M1010 1122h127v-1122h-127v516h-715v-516h-129v1122h129v-489h715v489z" />
<glyph horiz-adv-x="460" d="M295 0h-129v1120h129v-1120z" />
<glyph horiz-adv-x="872" d="M47 51l37 105q94 -58 229 -58q53 0 93.5 10t70 28t50 48.5t33 64.5t19 84.5t9 99.5t2.5 118v569h127v-569q0 -80 -3.5 -139.5t-13.5 -122t-28.5 -106t-48.5 -83.5t-72.5 -64t-102 -38t-135.5 -14q-159 0 -266 67z" />
<glyph horiz-adv-x="1146" d="M295 0h-129v1120h129v-633l663 635h144l-500 -493l524 -629h-139l-465 553l-227 -209v-344z" />
<glyph horiz-adv-x="1024" d="M971 0h-805v1122h129v-1007h676v-115z" />
<glyph horiz-adv-x="454" d="M369 1495l-176 -225l-93 35l121 190h148z" />
<glyph horiz-adv-x="1542" d="M1374 0h-127v891l-440 -686h-74l-438 686v-891h-129v1122h133l473 -745l471 745h131v-1122z" />
<glyph horiz-adv-x="1359" d="M1083 0l-788 883v-883h-129v1122h100l799 -899v897h129v-1120h-111z" />
<glyph horiz-adv-x="1331" d="M668 -8q-166 0 -300 82.5t-205 211.5t-71 275q0 110 44 213.5t119.5 181.5t183.5 125t229 47q125 0 234 -49.5t182 -130t115 -182.5t42 -207q0 -149 -74 -278.5t-206.5 -209t-292.5 -79.5zM221 561q0 -118 55.5 -221t159 -167t232.5 -64q131 0 234.5 67t156.5 169.5 t53 215.5q0 118 -56 221t-159 166.5t-229 63.5q-99 0 -184.5 -39.5t-142 -103.5t-88.5 -144.5t-32 -163.5z" />
<glyph horiz-adv-x="1103" d="M295 0h-129v1122h508q154 0 260 -110t106 -246q0 -143 -100.5 -250.5t-253.5 -107.5h-391v-408zM295 1008v-486h383q105 0 169 70.5t64 173.5q0 100 -71.5 171t-171.5 71h-373z" />
<glyph horiz-adv-x="1333" d="M1092 0l-91 98q-148 -106 -333 -106q-166 0 -300 82.5t-205 211.5t-71 275q0 110 44 213.5t119.5 181.5t183.5 125t229 47q125 0 234 -49.5t182 -130t115 -182.5t42 -207q0 -112 -44.5 -216t-123.5 -183l146 -160h-127zM668 109q141 0 254 79l-154 170h127l96 -108 q121 133 121 311q0 118 -56 221.5t-159 167.5t-229 64q-79 0 -150.5 -26t-124.5 -70t-92.5 -102t-59.5 -123.5t-20 -131.5q0 -118 55.5 -221t159 -167t232.5 -64z" />
<glyph horiz-adv-x="1169" d="M295 0h-129v1122h520q102 0 187 -53t131.5 -134.5t46.5 -168.5q0 -120 -75 -215t-194 -119l299 -432h-147l-285 408h-354v-408zM295 1008v-486h393q102 0 168 72t66 172q0 98 -72 170t-172 72h-383z" />
<glyph horiz-adv-x="1083" d="M944 999l-59 -102q-122 119 -330 119q-301 0 -301 -197q0 -37 13.5 -64.5t37 -47t68 -36.5t92 -29t123.5 -28q85 -18 142 -34t113 -41t88.5 -56.5t52.5 -77.5t20 -106q0 -103 -57.5 -174t-154.5 -103t-227 -32q-279 0 -487 160l63 106q72 -69 183.5 -111.5t244.5 -42.5 q139 0 218 47t79 136q0 39 -15.5 69t-42.5 52t-74.5 40.5t-99.5 32t-130 29.5q-101 21 -166 43.5t-117 56.5t-75 82.5t-23 116.5q0 153 119.5 237t312.5 84q235 0 389 -129z" />
<glyph horiz-adv-x="1097" d="M1047 1122v-114h-433v-1008h-129v1008h-434v114h996z" />
<glyph horiz-adv-x="1320" d="M657 109q88 0 156.5 25.5t111 67.5t70 101t38.5 120.5t11 131.5v567h130v-567q0 -94 -17 -175.5t-56.5 -153.5t-98 -123.5t-146 -81t-197.5 -29.5q-112 0 -201 31.5t-146.5 84t-96 125.5t-54.5 152.5t-16 169.5v567h129v-567q0 -90 19.5 -166t61.5 -141t119 -102t183 -37 z" />
<glyph horiz-adv-x="1204" d="M35 1122h137l430 -944l428 944h137l-510 -1122h-112z" />
<glyph horiz-adv-x="2166" d="M1966 1454h162l-463 -1454h-149l-439 1223l-426 -1223h-149l-463 1454h160l389 -1247l409 1247h156l426 -1247z" />
<glyph horiz-adv-x="1841" d="M840 629l-213 485h121l172 -393l172 393h120l-215 -485l226 -473l442 966h141l-518 -1122h-112l-254 541l-256 -541h-113l-518 1122h139l444 -966z" />
<glyph horiz-adv-x="1132" d="M27 1122h143l395 -477l396 477h143l-469 -569l455 -553h-142l-383 461l-381 -461h-143l455 553z" />
<glyph horiz-adv-x="1126" d="M29 1122h139l395 -594l398 594h141l-475 -708v-414h-127v416z" />
<glyph horiz-adv-x="1124" d="M72 0v100l823 908h-809v114h961v-102l-814 -905h811v-115h-972z" />
<glyph horiz-adv-x="1265" d="M588 -20q-145 0 -263 77t-181.5 202.5t-63.5 270.5q0 149 65.5 277t180 203t249.5 75q129 0 235 -66.5t167 -176.5v217h139v-1059h-139v215q-62 -109 -162.5 -172t-226.5 -63zM977 365v323q-47 121 -146 198t-219 77q-112 0 -203 -65t-138.5 -163.5t-47.5 -204.5 q0 -175 113 -301.5t280 -126.5q124 0 218.5 73.5t142.5 189.5z" />
<glyph horiz-adv-x="1105" d="M969 0h-135v168q-69 -93 -179 -140.5t-235 -47.5q-149 0 -251.5 95.5t-102.5 235.5q0 81 40 144.5t105.5 101t143 57t159.5 19.5q194 0 315 -55v96q0 139 -81.5 223t-221.5 84q-159 0 -340 -127l-49 92q207 139 402 139q205 0 317.5 -115.5t112.5 -307.5v-662zM793 236 q36 42 36 79v174q-145 56 -297 56q-61 0 -117.5 -12.5t-105.5 -38t-78.5 -70t-29.5 -102.5q0 -103 75 -169.5t179 -66.5q99 0 193.5 38.5t144.5 111.5z" />
<glyph horiz-adv-x="1794" d="M1745 164l35 -113q-122 -63 -240 -63q-96 0 -159.5 53.5t-63.5 151.5v763h-148v111h148v41q0 51 -1 81t-5.5 71.5t-13 65.5t-24.5 51.5t-39 42t-58 24.5t-80 10q-101 0 -153 -61t-52 -156q0 -62 28.5 -139.5t79 -171.5t50.5 -95l-136 -43q-98 175 -311 175 q-114 0 -202.5 -64t-132.5 -161.5t-44 -207.5q0 -114 51.5 -212.5t142 -157t197.5 -58.5q58 0 122 21.5t117.5 64.5t70.5 97l135 -41q-46 -122 -172.5 -193t-272.5 -71q-93 0 -177.5 30t-148.5 83t-111.5 122.5t-72 150.5t-24.5 164q0 87 23.5 169t69 151.5t108 122 t146.5 82.5t179 30q178 0 301 -90q-26 43 -42 74.5t-31 80t-15 93.5q0 128 81.5 207.5t229.5 79.5q54 0 97 -8t75.5 -19t57 -35t40.5 -43t27 -56.5t17 -62.5t8.5 -74.5t3 -78t0.5 -86.5h242v-111h-242v-725q0 -55 37 -84.5t90 -29.5q87 0 162 47z" />
<glyph horiz-adv-x="1261" d="M1112 0h-139v199q-63 -100 -164.5 -159.5t-216.5 -59.5q-108 0 -204.5 45.5t-163.5 121.5t-105.5 176t-38.5 207q0 149 62.5 276t175 203t249.5 76q127 0 230.5 -66.5t175.5 -174.5v651h139v-1495zM973 367v329q-39 111 -149 189t-222 78q-109 0 -197.5 -63.5 t-135 -161.5t-46.5 -208q0 -114 52.5 -212.5t144.5 -157t201 -58.5q71 0 149 35t136 98t67 132z" />
<glyph horiz-adv-x="1220" d="M1114 403q0 -123 -70.5 -220t-186 -148t-253.5 -51q-216 0 -358 124.5t-142 303.5q0 130 86.5 227.5t204.5 138.5q-104 43 -171.5 123t-67.5 182q0 70 26.5 130.5t71 104t103 75t123 46.5t130.5 15q83 0 163 -25t145.5 -70t106 -116.5t40.5 -157.5q0 -102 -69.5 -183 t-174.5 -124q127 -44 210 -143.5t83 -231.5zM973 414q0 93 -56.5 164.5t-138.5 106t-170 34.5q-91 0 -172.5 -37t-134.5 -109t-53 -161q0 -91 56 -162t138 -106t170 -35q89 0 171 37t136 108.5t54 159.5zM297 1077q0 -76 48.5 -134.5t119 -86t145.5 -27.5q74 0 144.5 28.5 t120 88t49.5 135.5q0 112 -93.5 179t-222.5 67q-127 0 -219 -68.5t-92 -181.5z" />
<glyph horiz-adv-x="1155" d="M588 924q202 0 337.5 -130.5t135.5 -332.5q0 -140 -68 -251t-182.5 -170.5t-253.5 -59.5q-154 0 -277.5 75.5t-187.5 204.5l92 70q58 -103 158 -163.5t217 -60.5q154 0 257.5 99t103.5 254q0 149 -100.5 245.5t-248.5 96.5q-95 0 -180.5 -43.5t-138.5 -120.5h-129 l162 817h702v-129h-598l-100 -522q109 121 299 121z" />
<glyph horiz-adv-x="1161" d="M905 0h-139v389h-715v125l758 940h96v-938h180v-127h-180v-389zM778 1237l-577 -721h577v721z" />
<glyph horiz-adv-x="438" d="M150 -436v1495h139v-1495h-139zM150 1290v187h139v-187h-139z" />
<glyph horiz-adv-x="462" d="M162 0v1495h139v-1495h-139z" />
<glyph horiz-adv-x="1241" d="M90 965q0 103 40.5 195.5t109 159t164 105.5t202.5 39q234 0 378 -163t144 -443q0 -434 -143.5 -656t-392.5 -222q-143 0 -258.5 72.5t-173.5 199.5l88 80q43 -103 137 -165.5t209 -62.5q182 0 291 168t110 465q-46 -120 -156 -192t-247 -72q-138 0 -253.5 66t-182 179 t-66.5 247zM604 1343q-155 0 -267 -111t-112 -265q0 -155 113 -267t268 -112t267 111.5t112 265.5t-113 266t-268 112z" />
<glyph horiz-adv-x="849" d="M549 127h260v-127h-678v127h277v1190q-38 -53 -142.5 -114.5t-181.5 -61.5v131q40 0 88 20t87 48.5t74 58.5t54 50t21 24h141v-1346z" />
<glyph horiz-adv-x="1259" d="M563 -20q-140 0 -252 78t-171.5 203.5t-59.5 270.5q0 147 67 274t184.5 203t256.5 76q121 0 227.5 -63t169.5 -164v209h125v-1503h-139v657q-156 -241 -408 -241zM606 102q119 0 211.5 70t153.5 182v330q-17 108 -128 193.5t-227 85.5q-84 0 -158.5 -37t-125 -98 t-80 -139t-29.5 -159q0 -176 109.5 -302t273.5 -126z" />
<glyph horiz-adv-x="1069" d="M178 0l672 1325h-784v129h1005l-735 -1454h-158z" />
<glyph horiz-adv-x="1241" d="M1149 479q0 -136 -67.5 -250.5t-186 -181.5t-260.5 -67q-234 0 -378 164t-144 444q0 432 143.5 654t392.5 222q142 0 257 -72t175 -198l-90 -82q-41 104 -135 166.5t-209 62.5q-182 0 -291 -168.5t-110 -465.5q44 120 154.5 192t248.5 72q137 0 252 -65.5t181.5 -178.5 t66.5 -248zM637 102q155 0 267 111t112 266t-112.5 266t-266.5 111q-157 0 -269 -111t-112 -266q0 -154 113 -265.5t268 -111.5z" />
<glyph horiz-adv-x="638" d="M346 0h-143v979h-156v127h156v393h143v-393h252v-127h-252v-979z" />
<glyph horiz-adv-x="1204" d="M588 -18q-194 0 -328.5 93t-157.5 244l86 78q8 -111 121 -197.5t279 -86.5q157 0 260.5 78.5t103.5 201.5q0 134 -126 211.5t-341 77.5h-69v121h69q203 0 315.5 67t112.5 195q0 126 -97.5 204.5t-237.5 78.5q-131 0 -229 -58t-138 -149l-96 94q56 109 183 173.5t277 64.5 q208 0 346 -116t138 -288q0 -124 -73 -205.5t-212 -115.5q145 -28 233.5 -130.5t88.5 -240.5q0 -118 -70.5 -209.5t-185.5 -138.5t-252 -47z" />
<glyph horiz-adv-x="1200" d="M1085 0h-981v29q0 132 26 233.5t79.5 176t123 128t167.5 99.5q28 13 72 32t75 32t71 33.5t68 38.5t57 45t46.5 56t29 67.5t11.5 82.5q0 123 -81.5 205.5t-234.5 82.5q-74 0 -141 -20t-117.5 -54t-84.5 -66t-62 -68l-92 90q17 21 36 42t68.5 62t103 70t136 52.5 t170.5 23.5q109 0 197 -33.5t142.5 -92t83.5 -133t29 -159.5q0 -58 -15 -110.5t-39.5 -92t-60.5 -75t-72 -60.5t-80.5 -49t-80 -39.5t-75.5 -32.5l-15 -6q-111 -46 -184.5 -96t-114.5 -108t-57.5 -119t-16.5 -140h813v-127z" />
<glyph horiz-adv-x="1200" d="M1051 0h-136v233q-61 -117 -177.5 -185t-248.5 -68q-82 0 -144 24.5t-100.5 66t-63 102t-33.5 125t-9 142.5v627h140v-602q0 -64 6.5 -115.5t24 -99t46 -79t74 -50.5t105.5 -19q124 0 228.5 84.5t147.5 208.5v672h140v-1067z" />
<glyph horiz-adv-x="1695" d="M1276 0h-146l-282 856l-283 -856h-145l-377 1067h147l308 -893l282 893h135l283 -893l309 893h144z" />
<glyph horiz-adv-x="1107" d="M940 1067h135l-598 -1503h-155q0 1 4.5 13l12 32t18 47.5t25.5 64.5t31.5 78.5t39 94t45.5 106.5l-463 1067h145l393 -938z" />
<glyph horiz-adv-x="1409" d="M705 -20q-114 3 -213.5 49t-169 120.5t-120 169.5t-74.5 196.5t-24 201.5q0 105 26.5 210.5t79 200t123.5 167.5t167.5 116t204.5 43q96 0 182 -32.5t150.5 -88.5t116 -128.5t84.5 -155.5t50 -167.5t17 -164.5q0 -106 -26.5 -212t-78.5 -199.5t-123 -166t-167.5 -115.5 t-204.5 -44zM248 717q2 -87 21.5 -172.5t57.5 -164.5t90.5 -139t127 -96t160.5 -36q89 0 165.5 38.5t129 101t89.5 143t54.5 163.5t17.5 162q0 86 -19.5 172.5t-58.5 164.5t-92.5 138.5t-127.5 96.5t-158 36q-110 0 -200.5 -58.5t-144.5 -150.5t-83 -195.5t-29 -203.5z" />
</font>
</defs>
</svg>
