<?xml version="1.0" standalone="no"?>
<!DOCTYPE svg PUBLIC "-//W3C//DTD SVG 1.1//EN" "http://www.w3.org/Graphics/SVG/1.1/DTD/svg11.dtd" >
<svg xmlns="../svg.html">
<metadata></metadata>
<defs>
<font id="ralewayextrabold" horiz-adv-x="548" >
<font-face units-per-em="2048" ascent="1638" descent="-410" />
<missing-glyph horiz-adv-x="477" />
<glyph unicode="ff" horiz-adv-x="1382" d="M1208 1239q-66 0 -98.5 -42t-32.5 -110v-137h260v-248h-260v-702h-327v702h-236v-702h-328v702h-137v248h137v58q0 194 103 315t280 121q125 0 277 -60q109 132 293 132q109 0 274 -64l-61 -246q-85 33 -144 33zM750 950v92q0 86 10 101q-58 24 -123 24q-61 0 -92 -41.5 t-31 -105.5v-70h236z" />
<glyph unicode="fi" horiz-adv-x="1218" d="M186 0v702h-137v248h137v125q0 193 127.5 317t335.5 124q112 0 215 -37.5t215 -110.5l-127 -248q-63 55 -137 87t-145 32q-74 0 -115 -42.5t-41 -109.5v-137h594v-950h-328v702h-266v-702h-328z" />
<glyph unicode="fl" horiz-adv-x="1415" d="M1370 305l41 -264q-3 -3 -43.5 -16t-110 -27t-129.5 -14q-135 0 -217 69.5t-82 171.5v776q0 238 -159 238q-80 0 -118 -60t-38 -151v-78h162v-248h-162v-702h-328v702h-137v248h137v156q0 201 128.5 305.5t353.5 104.5q246 0 367.5 -115.5t121.5 -319.5v-688 q0 -45 23.5 -82t70.5 -37q21 0 49.5 8t49.5 16z" />
<glyph unicode="ffi" horiz-adv-x="1781" d="M186 0v702h-137v248h137v58q0 194 103 315t280 121q125 0 277 -60q132 132 360 132q197 0 436 -148l-126 -248q-59 53 -135 86t-140 33q-82 0 -123 -42t-41 -110v-137h594v-950h-330v702h-264v-702h-327v702h-236v-702h-328zM514 950h236v92q0 86 10 101q-58 24 -123 24 q-61 0 -92 -41.5t-31 -105.5v-70z" />
<glyph unicode="ffl" horiz-adv-x="1976" d="M1692 -16q-137 0 -218 69.5t-81 171.5v776q0 238 -160 238q-80 0 -118 -60t-38 -151v-78h162v-248h-162v-702h-327v702h-236v-702h-328v702h-137v248h137v62q0 194 104 313t277 119q127 0 279 -60q126 132 383 132q246 0 368.5 -115.5t122.5 -319.5v-688q0 -45 24 -82 t71 -37q21 0 49.5 8t48.5 16l20 7l41 -264q-3 -3 -43 -16t-109.5 -27t-129.5 -14zM514 950h236v90q0 89 8 105q-54 22 -117 22q-64 0 -95.5 -39t-31.5 -106v-72z" />
<glyph horiz-adv-x="0" />
<glyph horiz-adv-x="0" />
<glyph unicode="&#xd;" horiz-adv-x="0" />
<glyph unicode=" "  horiz-adv-x="477" />
<glyph unicode="&#x09;" horiz-adv-x="477" />
<glyph unicode="&#xa0;" horiz-adv-x="477" />
<glyph unicode="!" horiz-adv-x="628" d="M479 578h-327v890h327v-890zM479 0h-327v340h327v-340z" />
<glyph unicode="&#x22;" horiz-adv-x="876" d="M391 1063h-278v424h278v-424zM762 1063h-277v424h277v-424z" />
<glyph unicode="#" horiz-adv-x="1513" d="M1438 1069v-225h-310l-55 -234h264v-243h-323l-88 -367h-262l90 367h-189l-88 -367h-262l90 367h-229v243h289l55 234h-244v225h299l94 385h262l-96 -385h189l94 385h262l-96 -385h254zM625 610h188l53 234h-186z" />
<glyph unicode="$" horiz-adv-x="1312" d="M1190 1307l-146 -279q-21 23 -124 71.5t-205 63.5v-278l65 -17q91 -25 155.5 -49.5t124.5 -60.5t96 -80.5t57.5 -107.5t21.5 -142q0 -90 -27 -163t-72.5 -122.5t-109.5 -84t-135 -51.5t-152 -21v-238h-143v240q-140 12 -279 58t-249 118l147 293q27 -31 151.5 -90.5 t254.5 -75.5v272l-99 29q-209 64 -301 153t-92 248q0 103 36 188.5t100 143t148 93t183 44.5v207h143v-207q219 -20 451 -155zM872 395q0 49 -38.5 79.5t-118.5 57.5v-245q157 6 157 108zM477 1047q0 -48 34.5 -78t109.5 -56v252q-144 -12 -144 -118z" />
<glyph unicode="%" horiz-adv-x="1679" d="M424 842q-147 0 -248.5 92.5t-101.5 224.5q0 131 101.5 223.5t248.5 92.5t248.5 -92.5t101.5 -223.5q0 -132 -101.5 -224.5t-248.5 -92.5zM424 1001q51 0 87 46.5t36 111.5q0 64 -36.5 110t-86.5 46q-51 0 -87 -46.5t-36 -109.5q0 -65 36 -111.5t87 -46.5zM1255 -20 q-147 0 -248.5 92t-101.5 223q0 132 101.5 224.5t248.5 92.5t249 -92.5t102 -224.5q0 -131 -102 -223t-249 -92zM1255 139q51 0 87 46.5t36 109.5q0 64 -36.5 111t-86.5 47q-51 0 -86.5 -46.5t-35.5 -111.5t35.5 -110.5t86.5 -45.5zM360 -18l-145 133l578 663l524 695 l147 -132l-559 -647z" />
<glyph unicode="&#x26;" horiz-adv-x="1501" d="M1499 0h-430l-96 100q-179 -120 -395 -120q-115 0 -211 37.5t-158.5 100.5t-96.5 142.5t-34 165.5q0 218 229 389q-76 90 -106.5 155.5t-30.5 141.5q0 164 116 262.5t296 98.5q79 0 150 -20.5t129 -60t92 -105t34 -148.5q0 -201 -221 -369l227 -242q58 136 58 293h266 q-3 -286 -131 -493zM612 236q97 0 185 55l-289 307q-115 -85 -115 -174q0 -72 60 -130t159 -58zM467 1124q0 -30 18 -56t76 -85q67 42 96 76t29 76q0 44 -29 71t-75 27q-52 0 -83.5 -31t-31.5 -78z" />
<glyph unicode="'" horiz-adv-x="495" d="M387 1069h-276v418h276v-418z" />
<glyph unicode="(" horiz-adv-x="663" d="M61 711q0 193 80 395.5t232 458.5l250 -103q-34 -53 -73 -130.5t-82.5 -182t-72 -224t-28.5 -220.5q0 -153 63.5 -323.5t183.5 -385.5l-239 -117q-314 475 -314 832z" />
<glyph unicode=")" horiz-adv-x="663" d="M602 711q0 -361 -315 -832l-238 117q120 216 184 386t64 323q0 101 -28.5 220.5t-72 224t-82.5 182t-73 130.5l250 103q151 -255 231 -458t80 -396z" />
<glyph unicode="*" horiz-adv-x="724" d="M266 965l-121 79l97 154l-146 43l43 137l150 -69l-13 164h170l-12 -164l152 69l43 -137l-146 -43l97 -154l-121 -79l-97 161z" />
<glyph unicode="+" horiz-adv-x="872" d="M584 858h192v-262h-192v-213h-295v213h-195v262h195v213h295v-213z" />
<glyph unicode="," horiz-adv-x="509" d="M47 -270v231q13 0 28 4t31.5 21.5t18.5 46.5v301h266v-363q0 -55 -22 -98t-57 -69t-81.5 -43.5t-91.5 -24t-92 -6.5z" />
<glyph unicode="-" horiz-adv-x="849" d="M741 416h-630v295h630v-295z" />
<glyph unicode="." horiz-adv-x="487" d="M377 0h-266v334h266v-334z" />
<glyph unicode="/" horiz-adv-x="1503" d="M1090 1454h362l-1034 -1454h-361z" />
<glyph unicode="0" horiz-adv-x="1257" d="M1165 600q0 -177 -69.5 -319t-192 -221.5t-274.5 -79.5q-151 0 -273 79.5t-192 221.5t-70 319q0 269 153 446t382 177q152 0 274.5 -80t192 -223t69.5 -320zM834 600q0 142 -57.5 232t-147.5 90q-92 0 -149.5 -89.5t-57.5 -232.5q0 -142 57.5 -230.5t149.5 -88.5 q90 0 147.5 88.5t57.5 230.5z" />
<glyph unicode="1" horiz-adv-x="1060" d="M752 295h260v-295h-885v295h291v522q-37 -48 -146 -96.5t-186 -48.5v303q42 0 117.5 37t138 83.5t76.5 73.5h334v-874z" />
<glyph unicode="2" horiz-adv-x="1196" d="M1106 0h-1030q0 196 68.5 314t246.5 216q218 118 252 139q70 45 81 85q3 11 3 24q0 58 -43 92.5t-117 34.5q-80 0 -144 -38.5t-128 -112.5l-207 241q72 79 220 137t317 58q217 0 337.5 -95.5t120.5 -260.5q0 -53 -14.5 -99.5t-36.5 -81t-57 -67.5t-65.5 -54.5 t-71.5 -46.5q-7 -4 -42 -25t-49 -29t-44.5 -28.5t-47.5 -34.5t-38 -34t-35 -39h524v-295z" />
<glyph unicode="3" horiz-adv-x="1163" d="M807 485q127 -23 206 -124.5t79 -243.5q0 -192 -150 -305t-405 -113q-310 0 -486 182l176 234q111 -117 295 -117q230 0 230 170q0 93 -69.5 139.5t-215.5 46.5h-59v236h67q111 0 176.5 47.5t65.5 124.5q0 66 -46 101.5t-126 35.5q-83 0 -152 -40t-117 -114l-206 238 q68 88 209.5 142.5t302.5 54.5q219 0 353 -99.5t134 -263.5q0 -123 -73.5 -217.5t-188.5 -114.5z" />
<glyph unicode="4" horiz-adv-x="1175" d="M934 -260h-328v280h-565v293l670 856h223v-854h180v-295h-180v-280zM643 678l-276 -363h276v363z" />
<glyph unicode="5" horiz-adv-x="1138" d="M598 659q210 0 345.5 -131.5t135.5 -337.5q0 -219 -154.5 -357t-394.5 -138q-158 0 -286 64t-195 178l184 202q59 -73 138.5 -115t160.5 -42q94 0 152.5 55t58.5 147q0 87 -54 141t-138 54q-56 0 -104 -25t-74 -69h-285l170 884h723v-299h-485l-43 -247q36 36 145 36z " />
<glyph unicode="6" horiz-adv-x="1243" d="M1165 489q0 -141 -70 -257.5t-193 -184t-273 -67.5q-254 0 -397.5 182.5t-143.5 507.5q0 378 153 587t421 209q273 0 454 -215l-184 -209q-51 66 -123.5 103t-151.5 37q-121 0 -192 -87t-74 -243q87 117 266 117q217 0 362.5 -138t145.5 -342zM629 256q91 0 158 69 t67 164q0 92 -66 157t-159 65t-159.5 -65t-66.5 -157q0 -95 67.5 -164t158.5 -69z" />
<glyph unicode="7" horiz-adv-x="1196" d="M109 -258l571 1155h-610v299h1126l-717 -1454h-370z" />
<glyph unicode="8" horiz-adv-x="1245" d="M1161 440q0 -135 -73 -240.5t-196 -161.5t-271 -56q-145 0 -267 58t-196 166.5t-74 246.5q0 106 60.5 189t144.5 134q-69 38 -115.5 110t-46.5 150q0 97 46 178.5t119 132.5t159 79t172 28q68 0 137 -17t133.5 -51.5t114.5 -82.5t80 -116.5t30 -146.5t-46.5 -153 t-115.5 -111q86 -51 145.5 -137.5t59.5 -198.5zM827 461q0 83 -59 131.5t-145 48.5q-87 0 -146 -50.5t-59 -131.5q0 -77 61.5 -128.5t143.5 -51.5q85 0 144.5 52.5t59.5 129.5zM461 1030q0 -68 49 -105.5t113 -37.5t113.5 38.5t49.5 104.5q0 58 -47.5 96.5t-115.5 38.5 q-69 0 -115.5 -38.5t-46.5 -96.5z" />
<glyph unicode="9" horiz-adv-x="1208" d="M61 659q0 105 41.5 199.5t112.5 162.5t171 108t212 40q254 0 397.5 -182.5t143.5 -507.5q0 -378 -153 -587t-421 -209q-273 0 -454 215l184 208q51 -66 123 -102.5t151 -36.5q121 0 192.5 87t74.5 243q-87 -117 -267 -117q-217 0 -362.5 137.5t-145.5 341.5zM598 893 q-91 0 -158 -69.5t-67 -164.5q0 -92 66 -156.5t159 -64.5t159 64.5t66 156.5q0 95 -67 164.5t-158 69.5z" />
<glyph unicode=":" horiz-adv-x="534" d="M401 729h-268v334h268v-334zM401 0h-268v334h268v-334z" />
<glyph unicode=";" horiz-adv-x="542" d="M406 729h-267v334h267v-334zM61 -270v231q12 0 27 4t32 21.5t19 46.5v301h267v-363q0 -55 -22 -98t-57 -69t-82 -43.5t-92 -24t-92 -6.5z" />
<glyph unicode="&#x3c;" horiz-adv-x="1046" d="M66 444v156l864 524v-348l-389 -246l389 -231v-367z" />
<glyph unicode="=" horiz-adv-x="890" d="M772 254h-651v209h651v-209zM772 668h-651v209h651v-209z" />
<glyph unicode="&#x3e;" horiz-adv-x="1046" d="M981 600v-156l-866 -512v367l389 231l-389 246v348z" />
<glyph unicode="?" horiz-adv-x="1011" d="M498 502h-269q0 108 33.5 182.5t130.5 128.5q6 3 44 23t58 31.5t54.5 36.5t53.5 46.5t34.5 52t15.5 62.5q0 65 -46.5 104t-112.5 39q-32 0 -61.5 -11t-48.5 -23.5t-41.5 -37.5t-31 -37t-26.5 -38l-211 147q54 124 169 194.5t261 70.5q64 0 125 -14t118 -45.5t99.5 -78 t68 -117t25.5 -155.5q0 -112 -47.5 -192t-144.5 -142q-26 -17 -68 -40t-69.5 -39t-56 -38t-42.5 -49.5t-14 -60.5zM504 0h-268v307h268v-307z" />
<glyph unicode="@" horiz-adv-x="1720" d="M870 1235q122 0 234.5 -30.5t210.5 -94t170.5 -154.5t114.5 -220t42 -283q0 -32 -1.5 -63.5t-9 -82t-20 -94t-37.5 -90.5t-57.5 -80t-83.5 -54.5t-114 -21.5q-101 0 -147.5 46.5t-55.5 113.5q-148 -145 -356 -145q-157 0 -240.5 83.5t-83.5 215.5q0 67 23.5 121.5 t62 89.5t90.5 58.5t106.5 33.5t112.5 10q111 0 226 -47q0 107 -50 164t-176 57q-167 0 -268 -88l-57 170q149 102 356 102q61 0 111.5 -9t88 -24t67 -39t48.5 -48t33 -57.5t21.5 -61t11.5 -65.5t5 -64.5t1 -63.5v-168q0 -55 3 -90.5t12.5 -74.5t31.5 -58.5t56 -19.5 q49 0 83 38.5t49 100t21 113t6 100.5q0 186 -80 333t-229 231.5t-342 84.5q-192 0 -339 -83t-225.5 -228t-78.5 -330q0 -178 73 -323t214.5 -232.5t326.5 -87.5q64 0 124 12t96.5 25.5t101.5 40.5l37 -121q-171 -82 -363 -82q-153 0 -289 55.5t-236.5 154.5t-159 245 t-58.5 317q0 179 64 325.5t173 240.5t250.5 145t298.5 51zM954 201q101 49 101 141v57q-127 39 -217 39q-94 0 -148.5 -35t-54.5 -110q0 -53 33.5 -94t109.5 -41q88 0 176 43z" />
<glyph unicode="A" horiz-adv-x="1378" d="M352 0h-356l559 1454h272l557 -1454h-356l-113 326h-452zM858 557l-168 541l-174 -541h342z" />
<glyph unicode="B" horiz-adv-x="1400" d="M1341 373q0 -121 -68 -207t-177.5 -126t-247.5 -40h-709v1454h809q98 0 176 -55.5t117 -139.5t39 -178q0 -107 -55 -199.5t-154 -136.5q128 -38 199 -132.5t71 -239.5zM999 440q0 68 -39 115t-98 47h-387v-317h373q65 0 108 43.5t43 111.5zM817 1167h-342v-301h330 q59 0 100 39.5t41 112.5q0 70 -36.5 109.5t-92.5 39.5z" />
<glyph unicode="C" horiz-adv-x="1357" d="M55 739q0 106 30 210t90 196.5t142.5 163t196 112t242.5 41.5q189 0 334.5 -86.5t216.5 -230.5l-258 -180q-21 55 -56.5 95.5t-77.5 62t-83 31t-84 9.5q-69 0 -127.5 -25t-99 -67.5t-69 -99t-42 -118.5t-13.5 -126q0 -116 43 -216t125.5 -162t186.5 -62q93 0 176.5 49.5 t120.5 150.5l276 -161q-41 -103 -137 -182t-212 -117.5t-233 -38.5q-146 0 -276.5 65t-219.5 170.5t-140.5 241t-51.5 274.5z" />
<glyph unicode="D" horiz-adv-x="1468" d="M682 0h-543v1454h543q175 0 314.5 -56.5t228.5 -156t135.5 -230t46.5 -282.5q0 -330 -198.5 -529.5t-526.5 -199.5zM1065 729q0 195 -102 312.5t-281 117.5h-207v-864h207q180 0 281.5 120.5t101.5 313.5z" />
<glyph unicode="E" horiz-adv-x="1230" d="M475 295h686v-295h-1022v1454h1004v-295h-668v-282h574v-273h-574v-309z" />
<glyph unicode="F" horiz-adv-x="1157" d="M475 0h-336v1454h987v-295h-651v-313h537v-273h-537v-573z" />
<glyph unicode="G" horiz-adv-x="1443" d="M1081 0v141q-151 -151 -354 -151q-179 0 -334.5 104t-245.5 276t-90 367q0 148 54 282.5t146.5 232t222 155t274.5 57.5q190 0 336 -84.5t219 -232.5l-252 -189q-44 96 -129.5 151.5t-184.5 55.5q-152 0 -248 -126.5t-96 -313.5q0 -190 100.5 -313t256.5 -123 q184 0 325 178v49h-280v244h559v-760h-279z" />
<glyph unicode="H" horiz-adv-x="1529" d="M1055 1454h336v-1454h-336v596h-580v-596h-336v1454h336v-563h580v563z" />
<glyph unicode="I" horiz-adv-x="614" d="M475 0h-336v1454h336v-1454z" />
<glyph unicode="J" horiz-adv-x="1019" d="M16 68l74 274q29 -21 97 -43.5t145 -22.5q51 0 87.5 10.5t62 36t41 58t24 86t11.5 109.5t3 139v739h336v-739q0 -104 -5 -181t-19 -158t-39.5 -138t-67.5 -109t-101.5 -83.5t-143 -50t-189.5 -18.5q-183 0 -316 91z" />
<glyph unicode="K" horiz-adv-x="1386" d="M475 0h-336v1454h336v-655l561 655h348l-544 -649l581 -805h-354l-426 616l-166 -180v-436z" />
<glyph unicode="L" horiz-adv-x="1206" d="M1180 0h-1041v1454h336v-1159h705v-295z" />
<glyph unicode="M" horiz-adv-x="1761" d="M1622 0h-336v870l-315 -632h-180l-316 632v-870h-336v1454h365l377 -760l379 760h362v-1454z" />
<glyph unicode="N" horiz-adv-x="1554" d="M1145 0l-670 831v-831h-336v1454h262l678 -854v854h336v-1454h-270z" />
<glyph unicode="O" horiz-adv-x="1503" d="M750 -12q-151 0 -282.5 63t-220 167t-139.5 237.5t-51 273.5q0 143 53 276.5t144.5 234.5t223 161.5t278.5 60.5q121 0 231 -41t192.5 -113t143 -165.5t92 -201.5t31.5 -218q0 -142 -52.5 -276t-143.5 -235.5t-222 -162.5t-278 -61zM399 725q0 -114 40 -212.5t122.5 -162 t192.5 -63.5q68 0 125.5 25t98.5 68t69.5 99.5t42.5 120t14 129.5q0 115 -40 212.5t-122 159.5t-190 62q-84 0 -153 -37.5t-111.5 -99.5t-65.5 -139.5t-23 -161.5z" />
<glyph unicode="P" horiz-adv-x="1269" d="M475 0h-336v1454h621q100 0 190 -43t151.5 -112t97.5 -157.5t36 -178.5q0 -128 -57 -240t-165 -183t-243 -71h-295v-469zM475 1159v-397h275q62 0 103.5 53.5t41.5 147.5q0 95 -47 145.5t-111 50.5h-262z" />
<glyph unicode="Q" horiz-adv-x="1507" d="M1180 0l-80 88q-164 -98 -350 -98q-151 0 -282.5 63t-220 166t-139.5 236.5t-51 273.5q0 143 53 277t144.5 235t223 162t278.5 61q151 0 282.5 -64t219.5 -168.5t138 -237t50 -271.5q0 -266 -170 -479l221 -244h-317zM754 289q78 0 137 30l-229 254h315l76 -84 q51 111 51 240q0 115 -40 213t-122 160.5t-190 62.5q-68 0 -126 -24.5t-99 -67t-70.5 -99t-43.5 -120t-14 -129.5q0 -114 40 -212t122.5 -161t192.5 -63z" />
<glyph unicode="R" horiz-adv-x="1392" d="M475 0h-336v1454h656q132 0 243 -72.5t171.5 -185t60.5 -233.5q0 -133 -64.5 -247.5t-173.5 -174.5l334 -541h-379l-293 469h-219v-469zM475 1159v-397h307q61 0 103.5 57t42.5 144q0 85 -48 140.5t-108 55.5h-297z" />
<glyph unicode="S" horiz-adv-x="1261" d="M1159 1307l-145 -279q-26 30 -151 84.5t-238 54.5q-179 0 -179 -120q0 -66 77 -105q50 -26 218 -71l1 -1h1h1l1 -1h1h1h1l1 -1h1q90 -25 155 -49.5t124.5 -60.5t96 -80.5t57.5 -107.5t21 -142q0 -96 -30 -172.5t-81 -126.5t-122 -83.5t-149 -47.5t-165 -14 q-161 0 -326.5 48t-293.5 132l147 293q18 -20 84.5 -57t180.5 -75t215 -38q178 0 178 108q0 18 -5 33.5t-16.5 28.5t-24 23.5t-35 21.5t-40.5 18.5t-49.5 17.5t-53.5 17t-61.5 18t-64.5 19q-209 64 -301.5 153t-92.5 248q0 112 43 203t116.5 149t170.5 89.5t207 31.5 q258 0 524 -159z" />
<glyph unicode="T" horiz-adv-x="1273" d="M1247 1454v-295h-442v-1159h-336v1159h-444v295h1222z" />
<glyph unicode="U" horiz-adv-x="1525" d="M762 287q83 0 145 35.5t96.5 97t51 134t16.5 157.5v743h336v-743q0 -154 -38.5 -283t-115 -228.5t-202 -155.5t-289.5 -56q-136 0 -245.5 39t-183 105.5t-123 159.5t-71.5 197.5t-22 221.5v743h336v-743q0 -87 17 -160.5t52 -134t96.5 -95t143.5 -34.5z" />
<glyph unicode="V" horiz-adv-x="1376" d="M-8 1454h354l344 -1032l338 1032h354l-553 -1454h-280z" />
<glyph unicode="W" horiz-adv-x="2162" d="M864 776l-241 676h311l145 -465l150 465h309l-244 -676l148 -391l366 1069h365l-580 -1454h-282l-230 569l-231 -569h-281l-579 1454h362l369 -1069z" />
<glyph unicode="X" horiz-adv-x="1329" d="M-16 1454h364l318 -502l317 502h363l-504 -737l487 -717h-362l-301 481l-301 -481h-365l487 717z" />
<glyph unicode="Y" horiz-adv-x="1327" d="M-16 1454h364l314 -668l319 668h365l-517 -958v-496h-335v500z" />
<glyph unicode="Z" horiz-adv-x="1275" d="M55 0v252l756 907h-727v295h1116v-252l-723 -907h731v-295h-1153z" />
<glyph unicode="[" horiz-adv-x="657" d="M575 -82h-438v1598h438v-261h-137v-1077h137v-260z" />
<glyph unicode="\" horiz-adv-x="1363" d="M53 1454h363l891 -1454h-361z" />
<glyph unicode="]" horiz-adv-x="657" d="M522 -82h-440v260h137v1077h-137v261h440v-1598z" />
<glyph unicode="^" horiz-adv-x="1236" d="M340 621h-262l405 833h273l403 -833h-266l-272 563z" />
<glyph unicode="_" horiz-adv-x="757" d="M748 -295h-738v295h738v-295z" />
<glyph unicode="`" horiz-adv-x="550" d="M291 1171l-197 324h297l107 -266z" />
<glyph unicode="a" horiz-adv-x="1208" d="M418 -20q-160 0 -266.5 98t-106.5 244q0 158 129 258t332 100q144 0 242 -45v49q0 186 -216 186q-158 0 -335 -118l-97 204q215 140 465 140q244 0 377 -116t133 -335v-276q0 -49 18.5 -69.5t65.5 -23.5v-276q-81 -16 -158 -16q-172 3 -196 137l-6 49q-72 -92 -171 -141 t-210 -49zM514 215q52 0 103 18.5t83 49.5q48 38 48 77v103q-100 35 -187 35q-89 0 -148 -42t-59 -106q0 -58 45.5 -96.5t114.5 -38.5z" />
<glyph unicode="b" horiz-adv-x="1308" d="M756 -20q-121 0 -213.5 51.5t-145.5 146.5v-178h-286v1495h327v-596q53 94 144 145.5t211 51.5q133 0 240 -75.5t165.5 -204t58.5 -284.5q0 -155 -65 -281t-180 -198.5t-256 -72.5zM664 256q114 0 186 78.5t72 197.5q0 118 -69 201.5t-173 83.5q-75 0 -141 -52.5 t-101 -133.5v-225q33 -68 95.5 -109t130.5 -41z" />
<glyph unicode="c" horiz-adv-x="1167" d="M49 539q0 112 39.5 212.5t112 177.5t183 122t243.5 45q179 0 308 -77t195 -208l-319 -96q-63 102 -186 102q-103 0 -171.5 -77t-68.5 -201q0 -125 69 -204t171 -79q61 0 112 29t76 77l320 -98q-62 -129 -194 -206.5t-312 -77.5q-132 0 -242.5 45.5t-183 122.5t-112.5 178 t-40 213z" />
<glyph unicode="d" horiz-adv-x="1351" d="M559 -20q-146 0 -262.5 73t-181 200.5t-64.5 285.5q0 155 60 282t169 201t246 74q109 0 201.5 -53.5t142.5 -143.5v596h328v-1126q0 -49 18.5 -69.5t65.5 -23.5v-276q-91 -16 -158 -16q-172 3 -196 137l-6 57q-57 -97 -153.5 -147.5t-209.5 -50.5zM647 256q68 0 130 41 t95 109v225q-31 81 -99 133.5t-142 52.5q-104 0 -173 -84.5t-69 -200.5q0 -120 72 -198t186 -78z" />
<glyph unicode="e" horiz-adv-x="1236" d="M627 -20q-132 0 -242.5 44.5t-183 119.5t-112.5 174t-40 208q0 116 39.5 219.5t111.5 181.5t182.5 123.5t244.5 45.5t244 -45.5t181 -122.5t109.5 -176.5t38.5 -210.5q0 -51 -8 -105h-795q7 -103 76.5 -162t163.5 -59q74 0 139 36t88 93l279 -78q-65 -130 -200 -208 t-316 -78zM391 639h463q-9 100 -73 160.5t-158 60.5q-95 0 -159 -60.5t-73 -160.5z" />
<glyph unicode="f" horiz-adv-x="808" d="M514 0h-328v702h-137v248h137v125q0 201 103 321t274 120q132 0 279 -64l-60 -246q-79 33 -147 33q-121 0 -121 -152v-137h250v-248h-250v-702z" />
<glyph unicode="g" horiz-adv-x="1308" d="M528 -4q-138 0 -247.5 73.5t-168.5 197t-59 272.5q0 156 63 283t177.5 200.5t259.5 73.5q118 0 211 -51.5t149 -145.5v176h285v-1001q0 -243 -172.5 -387t-450.5 -144q-322 0 -512 215l175 179q61 -69 150 -108.5t187 -39.5q61 0 113 16.5t93.5 49.5t65 89t23.5 130v104 q-48 -87 -140.5 -134.5t-201.5 -47.5zM643 256q73 0 132.5 41t94.5 109v225q-32 84 -99.5 135t-143.5 51q-103 0 -171.5 -85.5t-68.5 -201.5q0 -118 73 -196t183 -78z" />
<glyph unicode="h" horiz-adv-x="1251" d="M1149 688v-688h-328v604q0 101 -41 152t-114 51q-62 0 -130.5 -54t-97.5 -137v-616h-327v1495h327v-600q59 95 157 148t216 53q338 0 338 -408z" />
<glyph unicode="i" d="M438 0h-327v1075h327v-1075zM438 1198h-327v297h327v-297z" />
<glyph unicode="j" d="M43 -414q-169 0 -287 103l138 223q40 -43 108 -43q48 0 78.5 31t30.5 82v1093h327v-1069q0 -185 -112 -302.5t-283 -117.5zM438 1198h-327v297h327v-297z" />
<glyph unicode="k" horiz-adv-x="1163" d="M1182 0h-348l-281 432l-115 -119v-313h-327v1495h327v-866l365 446h348l-387 -463z" />
<glyph unicode="l" horiz-adv-x="694" d="M109 268v1227h327v-1094q0 -122 107 -122q48 0 106 28l43 -264q-61 -28 -141 -44.5t-148 -16.5q-141 0 -217.5 74t-76.5 212z" />
<glyph unicode="m" horiz-adv-x="1912" d="M1810 688v-688h-327v604q0 102 -37 152.5t-103 50.5q-65 0 -128.5 -54.5t-90.5 -136.5v-616h-327v604q0 102 -37 152.5t-103 50.5q-65 0 -127.5 -53.5t-91.5 -137.5v-616h-327v1075h295v-180q60 97 162.5 149t236.5 52q124 0 198.5 -58.5t98.5 -150.5q60 100 161 154.5 t228 54.5q319 0 319 -408z" />
<glyph unicode="n" horiz-adv-x="1251" d="M1149 688v-688h-328v604q0 102 -39 152.5t-106 50.5q-69 0 -139 -55t-99 -136v-616h-327v1075h295v-180q60 96 169 148.5t248 52.5q326 0 326 -408z" />
<glyph unicode="o" horiz-adv-x="1247" d="M625 -20q-134 0 -244.5 45.5t-182 122.5t-110.5 177.5t-39 211.5q0 112 39 212.5t110.5 178t182 123t244.5 45.5q133 0 243 -45.5t182 -123t111 -178t39 -212.5q0 -111 -39 -211.5t-110.5 -177.5t-181.5 -122.5t-244 -45.5zM385 537q0 -125 68 -203t172 -78 q102 0 169.5 79t67.5 202q0 125 -67 202.5t-170 77.5t-171.5 -78.5t-68.5 -201.5z" />
<glyph unicode="p" horiz-adv-x="1306" d="M793 -20q-120 0 -211.5 51t-143.5 143v-610h-327v1511h286v-174q126 195 359 195q142 0 257 -73.5t179.5 -200.5t64.5 -281q0 -240 -132 -400.5t-332 -160.5zM680 256q104 0 173 84.5t69 202.5q0 119 -72.5 196.5t-185.5 77.5q-68 0 -130.5 -40t-95.5 -107v-221 q33 -83 100.5 -138t141.5 -55z" />
<glyph unicode="q" horiz-adv-x="1306" d="M516 -20q-133 0 -239.5 74.5t-166 202.5t-59.5 284q0 155 64.5 282t179.5 200t256 73q231 0 360 -197v176h285v-1126q0 -49 18.5 -68.5t65.5 -21.5v-279q-91 -16 -182 -16q-96 2 -163 60.5t-67 150.5v399q-110 -194 -352 -194zM641 256q136 0 227 145v228 q-25 79 -94 133.5t-143 54.5q-104 0 -175 -84.5t-71 -200.5q0 -121 71.5 -198.5t184.5 -77.5z" />
<glyph unicode="r" horiz-adv-x="821" d="M793 1090v-295q-122 -2 -217 -40t-138 -110v-645h-327v1075h301v-217q57 107 144 169t185 65q42 0 52 -2z" />
<glyph unicode="s" horiz-adv-x="1058" d="M561 -20q-135 0 -286 38t-250 99l129 221q218 -127 399 -127q71 0 109 22.5t38 65.5q0 41 -47 65t-180 58q-223 58 -308 123t-85 186q0 163 125 264t319 101q223 0 461 -127l-129 -207q-191 106 -332 106q-64 0 -102.5 -23t-38.5 -67q0 -43 41 -65t162 -51 q242 -61 336 -132t94 -202q0 -160 -123 -254t-332 -94z" />
<glyph unicode="t" horiz-adv-x="821" d="M745 317l62 -260q-178 -77 -330 -77q-133 0 -216 69.5t-83 216.5v561h-137v248h137v342h328v-342h219v-248h-219v-448q0 -51 26 -75.5t70 -24.5q56 0 143 38z" />
<glyph unicode="u" horiz-adv-x="1296" d="M438 -20q-163 0 -249.5 104t-86.5 303v688h328v-616q0 -98 39 -150.5t111 -52.5q148 0 235 156v663h328v-706q0 -49 18.5 -69.5t65.5 -23.5v-276q-91 -16 -156 -16q-172 3 -199 137l-6 65q-143 -206 -428 -206z" />
<glyph unicode="v" horiz-adv-x="1124" d="M739 0h-354l-381 1075h336l235 -813l238 813h307z" />
<glyph unicode="w" horiz-adv-x="1753" d="M1155 303l291 772h309l-444 -1075h-269l-165 442l-164 -442h-269l-444 1075h309l291 -772l100 293l-188 479h262l103 -323l104 323h262l-190 -479z" />
<glyph unicode="x" horiz-adv-x="1103" d="M4 1075h334l194 -303l21 -39l18 39l195 303h336l-373 -538l379 -537h-334l-203 301l-18 39l-18 -39l-203 -301h-336l379 537z" />
<glyph unicode="y" horiz-adv-x="1116" d="M106 -442v280q85 -26 150 -26q53 0 86.5 43t56.5 145l-407 1075h336l252 -794l215 794h305l-412 -1249q-44 -136 -152.5 -217t-248.5 -82q-101 0 -181 31z" />
<glyph unicode="z" horiz-adv-x="1007" d="M47 0v197l549 651h-520v227h864v-196l-547 -652h559v-227h-905z" />
<glyph unicode="{" horiz-adv-x="671" d="M588 1255h-113v-370q0 -77 -78 -148q78 -70 78 -147v-393h113v-260h-361q-17 0 -32 14.5t-15 46.5v481q0 56 -33.5 97t-78.5 51v225q42 0 77 46t35 97v459q0 33 15.5 47.5t31.5 14.5h361v-261z" />
<glyph unicode="|" horiz-adv-x="540" d="M410 -266h-277v1853h277v-1853z" />
<glyph unicode="}" horiz-adv-x="671" d="M197 1255h-113v261h360q15 0 31.5 -15t16.5 -47v-459q0 -51 34 -97t76 -46v-225q-44 -10 -77 -51t-33 -97v-481q0 -32 -15.5 -46.5t-32.5 -14.5h-360v260h113v393q0 81 77 147q-77 70 -77 148v370z" />
<glyph unicode="~" horiz-adv-x="1196" d="M102 455q0 20 9 53t32.5 76t57.5 80t90 62.5t123 25.5q52 0 106 -17t91 -37.5t85 -37.5t90 -17q33 0 59.5 10t41.5 24.5t24.5 30.5t13 26t3.5 14h174q0 -14 -9 -44t-33 -74t-58 -82t-91.5 -65.5t-126.5 -27.5q-65 0 -132 26t-128.5 52t-111.5 26q-34 0 -60 -10.5 t-39 -24.5t-20.5 -31t-9.5 -25.5t-2 -12.5h-179z" />
<glyph unicode="&#xa1;" horiz-adv-x="628" d="M152 879h327v-891h-327v891zM152 1456h327v-340h-327v340z" />
<glyph unicode="&#xa2;" horiz-adv-x="1241" d="M711 -246h-142v228q-139 11 -252.5 93t-175 202.5t-61.5 250.5q0 140 54.5 257t167 199.5t267.5 107.5v229h142v-229q144 -5 263.5 -76.5t188.5 -204.5l-317 -96q-23 38 -59.5 62.5t-75.5 29.5v-543q47 13 85 38.5t52 59.5l319 -98q-40 -89 -125 -156.5t-171.5 -97.5 t-159.5 -30v-226zM418 528q0 -81 40.5 -149t110.5 -98v512q-69 -21 -110 -95t-41 -170z" />
<glyph unicode="&#xa3;" horiz-adv-x="1155" d="M117 543v243h131q-4 9 -22 48.5t-24 53.5t-19 47.5t-18 54t-10 49.5t-5 55q0 155 128.5 262.5t313.5 107.5q129 0 246.5 -57t199.5 -158l-168 -200q-53 65 -131.5 108t-148.5 43q-66 0 -108 -39t-42 -102q0 -38 15 -79.5t44 -101t42 -92.5h383v-243h-342 q-14 -144 -156 -291q88 29 158 29q46 0 136 -16.5t136 -16.5q55 0 141 28l80 -241q-48 -29 -113.5 -47.5t-125.5 -18.5q-62 0 -194.5 32t-199.5 32q-121 0 -276 -51l-70 233q87 63 141 150.5t62 177.5h-184z" />
<glyph unicode="&#xa5;" horiz-adv-x="1486" d="M1425 1454l-331 -602h141v-211h-250l-78 -145v-64h330v-211h-330v-221h-334v221h-327v211h327v68l-75 141h-250v211h143l-328 602h363l313 -668l320 668h366z" />
<glyph unicode="&#xa6;" d="M137 532h277v-798h-277v798zM137 1587h277v-799h-277v799z" />
<glyph unicode="&#xa7;" horiz-adv-x="1107" d="M965 457q61 -64 61 -207q0 -91 -30.5 -166t-79.5 -123t-112 -80.5t-125.5 -46.5t-123.5 -14q-79 0 -156 23.5t-135 60.5t-98 71.5t-68 67.5l209 201q107 -113 232 -113q62 0 104.5 28.5t42.5 78.5q0 21 -8 36t-19 23.5t-30 14t-33 7.5t-35 3q-211 17 -322.5 117 t-111.5 259q0 28 4 54t8 38.5t11.5 31.5t7.5 20q-27 31 -50.5 90t-23.5 129q0 78 34 151.5t92.5 129t141.5 89t176 33.5q71 0 137 -20t111.5 -47t89.5 -68.5t68 -71t51 -67.5l-250 -119q-61 103 -186 103q-62 0 -98.5 -29.5t-36.5 -77.5q0 -55 34.5 -74.5t98.5 -21.5 q66 -2 127 -13.5t121.5 -38t104.5 -65.5t71.5 -100.5t27.5 -137.5q0 -94 -34 -159zM444 653q0 -42 26 -66t56.5 -29t74 -10t61.5 -11q28 22 28 69q0 53 -40 78t-89 25q-67 0 -90 14q-27 -24 -27 -70z" />
<glyph unicode="&#xa8;" horiz-adv-x="1040" d="M440 1214h-270v265h270v-265zM870 1214h-270v265h270v-265z" />
<glyph unicode="&#xa9;" horiz-adv-x="1730" d="M858 -14q-164 0 -308 56.5t-246 154.5t-161 235.5t-59 294.5q0 156 59 293t161 234.5t246 153.5t308 56q167 0 314 -56t251 -153.5t164 -234.5t60 -293q0 -157 -60 -294.5t-164 -235.5t-251 -154.5t-314 -56.5zM858 100q185 0 336.5 78.5t239.5 222t88 324.5 q0 173 -86 316t-238.5 226t-339.5 83q-137 0 -257.5 -48.5t-206.5 -132t-135.5 -198.5t-49.5 -244q0 -130 49.5 -245.5t135 -199.5t206.5 -133t258 -49zM877 233q-121 0 -222 39t-168.5 106t-105 156.5t-37.5 190.5q0 97 34.5 185t99 157.5t167.5 110.5t229 41 q169 0 293.5 -74.5t184.5 -202.5l-318 -98q-52 98 -162 98q-85 0 -138.5 -61t-53.5 -156q0 -98 58 -156.5t136 -58.5q50 0 93.5 26.5t68.5 71.5l320 -96q-59 -123 -183.5 -201t-295.5 -78z" />
<glyph unicode="&#xaa;" horiz-adv-x="917" d="M324 688q-106 0 -177 68.5t-71 169.5q0 110 86 180t221 70q96 0 156 -31v31q0 127 -138 127q-102 0 -223 -82l-67 145q140 96 313 96q166 0 256 -80.5t90 -232.5v-182q0 -34 12.5 -49.5t44.5 -16.5v-199q-61 -12 -108 -12q-122 3 -137 98l-7 33q-47 -64 -112 -98.5 t-139 -34.5zM393 858q31 0 63 12t52 31q31 22 31 53v68q-52 25 -115 25q-57 0 -94 -28.5t-37 -72.5q0 -37 28.5 -62.5t71.5 -25.5z" />
<glyph unicode="&#xab;" horiz-adv-x="1386" d="M70 444v156l551 395v-264l-293 -201l293 -186v-264zM721 444v156l553 395v-264l-293 -201l293 -186v-264z" />
<glyph unicode="&#xac;" horiz-adv-x="1280" d="M115 850h1038v-649h-276v354h-762v295z" />
<glyph unicode="&#xad;" horiz-adv-x="1259" d="M1149 416h-1038v295h1038v-295z" />
<glyph unicode="&#xae;" horiz-adv-x="1730" d="M860 -14q-221 0 -399 96.5t-277.5 266t-99.5 378.5q0 156 58.5 293t160.5 234.5t246.5 153.5t310.5 56q167 0 313 -56t250 -153.5t164 -234.5t60 -293q0 -157 -60 -294.5t-164 -235.5t-250 -154.5t-313 -56.5zM862 98q137 0 258 47t208 129t137.5 199t50.5 250 q0 173 -84 316.5t-234.5 227t-335.5 83.5t-333 -83.5t-230 -226t-82 -315.5q0 -129 48 -244.5t132.5 -199.5t205 -133.5t259.5 -49.5zM522 287v889h404q81 0 149 -45.5t105 -115t37 -143.5q0 -79 -41 -150t-107 -106l205 -329h-256l-178 286h-88v-286h-230zM752 770h151 q40 0 64 25t24 77q0 53 -26.5 78t-65.5 25h-147v-205z" />
<glyph unicode="&#xaf;" horiz-adv-x="876" d="M750 1272h-623v198h623v-198z" />
<glyph unicode="&#xb0;" horiz-adv-x="604" d="M76 1266q0 93 63.5 155t161.5 62q99 0 162 -62t63 -155q0 -105 -62.5 -169.5t-162.5 -64.5q-98 0 -161.5 65.5t-63.5 168.5zM250 1307q-21 -25 -21 -50q0 -28 21 -49q22 -22 51 -22q32 0 51 22q21 18 21 49q0 29 -21 50q-17 20 -51 20q-31 0 -51 -20z" />
<glyph unicode="&#xb1;" horiz-adv-x="974" d="M862 33h-749v260h749v-260zM635 911h227v-260h-227v-248h-293v248h-229v260h229v248h293v-248z" />
<glyph unicode="&#xb2;" horiz-adv-x="876" d="M782 606h-723q0 172 58 262.5t213 155.5q17 7 54.5 21.5t55.5 22.5t48 22t45 25.5t32 27t24 33.5t7 38q0 97 -162 97q-78 0 -142.5 -27.5t-107.5 -66.5l-121 139q43 56 149.5 98.5t248.5 42.5q170 0 261 -74t91 -211q0 -203 -264 -280q-176 -52 -176 -139h409v-187z" />
<glyph unicode="&#xb3;" horiz-adv-x="849" d="M395 592q-129 0 -219 40t-123 116l103 143q13 -30 76.5 -68.5t160.5 -38.5q85 0 141 23t56 67q0 101 -303 101h-51v174h49q274 0 274 96q0 26 -26 44t-60 25t-70 7q-140 0 -229 -96l-121 153q48 56 144.5 87.5t203.5 31.5q155 0 259 -69.5t104 -172.5q0 -71 -53 -119 t-146 -63q100 -13 159.5 -77t59.5 -150q0 -64 -33 -114t-89 -80t-123.5 -45t-143.5 -15z" />
<glyph unicode="&#xb4;" horiz-adv-x="550" d="M498 1495l-195 -324l-209 58l107 266h297z" />
<glyph unicode="&#xb5;" horiz-adv-x="1335" d="M135 -436v1511h328v-616q0 -203 158 -203q62 0 122 38t105 118v663h328v-706q0 -49 19 -69.5t65 -23.5v-276q-91 -16 -158 -16q-173 3 -197 137l-6 65q-30 -69 -119 -137.5t-180 -68.5q-66 0 -107.5 33.5t-50.5 64.5l21 -514h-328z" />
<glyph unicode="&#xb6;" horiz-adv-x="1380" d="M72 924q0 252 151 391t426 139h647v-244h-143v-1374h-276v572h-86v-572h-277v572q-199 0 -320.5 142t-121.5 374zM342 932q0 -120 49 -197t123 -86v561q-79 -6 -125.5 -82.5t-46.5 -195.5zM877 649v561h-86v-561h86z" />
<glyph unicode="&#xb7;" horiz-adv-x="487" d="M377 492h-266v339h266v-339z" />
<glyph unicode="&#xb8;" horiz-adv-x="702" d="M43 -375l61 115q26 -15 79.5 -28t105.5 -13q114 0 114 65q0 66 -110 66q-73 0 -162 -23l127 259l123 -37l-74 -107q27 6 62 6q80 0 132 -38t52 -113q0 -86 -73.5 -140.5t-213.5 -54.5q-124 0 -223 43z" />
<glyph unicode="&#xb9;" horiz-adv-x="632" d="M449 797h141v-189h-494v189h158v497q-24 -33 -85.5 -69.5t-105.5 -36.5v190q37 0 85 30t75.5 56.5t30.5 32.5h195v-700z" />
<glyph unicode="&#xba;" horiz-adv-x="903" d="M451 688q-177 0 -281 112.5t-104 274.5q0 105 44 192t133 141t208 54q120 0 209.5 -54t133.5 -141t44 -192q0 -104 -44 -191t-133.5 -141.5t-209.5 -54.5zM301 1075q0 -84 42.5 -136t107.5 -52t107 52t42 136t-42 136.5t-107 52.5t-107.5 -52.5t-42.5 -136.5z" />
<glyph unicode="&#xbb;" horiz-adv-x="1386" d="M1317 600v-156l-553 -364v264l295 186l-295 201v264zM664 600v-156l-553 -364v264l295 186l-295 201v264z" />
<glyph unicode="&#xbc;" horiz-adv-x="1988" d="M1788 2h-191v180h-446v187l506 514h131v-514h127v-187h-127v-180zM1606 651l-275 -282h275v282zM469 797h141v-189h-493v189h157v497q-24 -33 -85 -69.5t-105 -36.5v190q37 0 84.5 30t75 56.5t30.5 32.5h195v-700zM537 -18l-146 133l578 663l524 695l147 -132l-559 -647z " />
<glyph unicode="&#xbd;" horiz-adv-x="2033" d="M1954 0h-699q0 171 54 261.5t198 156.5q16 7 50.5 21.5t51 22.5t44 22t42 25.5t30 27t22 33.5t6.5 38q0 97 -151 97q-133 0 -230 -97l-110 142q40 56 138 98.5t230 42.5q156 0 240 -74t84 -211q0 -203 -244 -280q-164 -52 -164 -140h408v-186zM467 797h141v-189h-493v189 h157v497q-24 -33 -85 -69.5t-105 -36.5v190q37 0 84.5 30t75 56.5t30.5 32.5h195v-700zM459 -18l-146 133l578 663l524 695l148 -132l-559 -647z" />
<glyph unicode="&#xbe;" horiz-adv-x="2013" d="M420 592q-129 0 -219 40t-123 116l102 143q13 -30 77 -68.5t161 -38.5q85 0 140.5 23t55.5 67q0 101 -303 101h-51v174h49q275 0 275 96q0 26 -26 44t-60 25t-70 7q-140 0 -229 -96l-121 153q48 56 144.5 87.5t203.5 31.5q155 0 258.5 -69.5t103.5 -172.5 q0 -71 -52.5 -119t-145.5 -63q100 -13 159.5 -77t59.5 -150q0 -64 -33 -114t-89 -80t-123.5 -45t-143.5 -15zM1806 2h-190v180h-447v187l506 514h131v-514h127v-187h-127v-180zM1624 651l-274 -282h274v282zM602 -18l-145 133l577 663l525 695l147 -132l-559 -647z" />
<glyph unicode="&#xbf;" horiz-adv-x="997" d="M508 535h268q0 -108 -33.5 -183t-130.5 -129q-6 -3 -44 -23t-58 -31.5t-54.5 -36.5t-53.5 -46.5t-34.5 -52t-15.5 -62.5q0 -65 47 -104t113 -39q32 0 61.5 11t48.5 23.5t41.5 37.5t31 37t26.5 38l211 -147q-54 -124 -169 -194t-261 -70q-81 0 -156 23t-139 70 t-102.5 128.5t-38.5 187.5q0 112 47.5 192t144.5 142q26 17 68.5 40t69.5 39t55.5 38.5t42.5 50t14 60.5zM502 1036h268v-307h-268v307z" />
<glyph unicode="&#xc0;" horiz-adv-x="1378" d="M352 0h-356l559 1454h272l557 -1454h-356l-113 326h-452zM858 557l-168 541l-174 -541h342zM598 1552l-197 324h297l107 -266z" />
<glyph unicode="&#xc1;" horiz-adv-x="1378" d="M352 0h-356l559 1454h272l557 -1454h-356l-113 326h-452zM858 557l-168 541l-174 -541h342zM979 1874l-195 -324l-209 58l107 266h297z" />
<glyph unicode="&#xc2;" horiz-adv-x="1378" d="M352 0h-356l559 1454h272l557 -1454h-356l-113 326h-452zM858 557l-168 541l-174 -541h342zM516 1579l-168 74l225 221h236l223 -221l-168 -74l-174 129z" />
<glyph unicode="&#xc3;" horiz-adv-x="1378" d="M352 0h-356l559 1454h272l557 -1454h-356l-113 326h-452zM858 557l-168 541l-174 -541h342zM821 1583q-53 0 -101.5 23.5t-91 47t-79.5 23.5q-25 0 -44 -10t-28.5 -22.5t-15.5 -28.5t-7 -24.5t-1 -12.5h-177q0 21 8 54t28.5 75t49 77.5t74.5 60t101 24.5q43 0 83 -15.5 t65.5 -33.5t58.5 -33.5t65 -15.5q26 0 46.5 10t31.5 24t17.5 30t8.5 25t2 13h177q0 -16 -8.5 -47t-29.5 -74t-50.5 -80.5t-77.5 -63.5t-105 -26z" />
<glyph unicode="&#xc4;" horiz-adv-x="1378" d="M352 0h-356l559 1454h272l557 -1454h-356l-113 326h-452zM858 557l-168 541l-174 -541h342zM610 1595h-270v265h270v-265zM1040 1595h-270v265h270v-265z" />
<glyph unicode="&#xc5;" horiz-adv-x="1378" d="M352 0h-356l559 1454h272l557 -1454h-356l-113 326h-452zM858 557l-168 541l-174 -541h342zM471 1706q0 81 59 124.5t160 43.5t159 -43t58 -125q0 -80 -58.5 -123t-158.5 -43q-101 0 -160 43t-59 123zM690 1778q-35 0 -58.5 -19.5t-23.5 -50.5t23.5 -51.5t58.5 -20.5 q33 0 57.5 20.5t24.5 51.5t-23.5 50.5t-58.5 19.5z" />
<glyph unicode="&#xc6;" horiz-adv-x="2000" d="M-37 0l895 1454h1057v-295h-635v-272h524v-293h-524v-299h653v-295h-987v326h-440l-187 -326h-356zM649 621h273v458z" />
<glyph unicode="&#xc7;" horiz-adv-x="1359" d="M518 -375l62 115q26 -15 79 -28t105 -13q115 0 115 65q0 66 -111 66q-73 0 -162 -23l90 183q-137 11 -258 79t-203.5 172t-130 234t-47.5 264q0 106 30 210t90 196.5t142.5 163t196 112t242.5 41.5q189 0 334.5 -86.5t216.5 -230.5l-258 -180q-21 55 -56.5 95.5t-77.5 62 t-83 31t-84 9.5q-69 0 -127.5 -25t-99 -67.5t-69 -99t-42 -118.5t-13.5 -126q0 -116 43 -216t125.5 -162t186.5 -62q93 0 176.5 49.5t120.5 150.5l276 -161q-55 -135 -194.5 -223.5t-301.5 -108.5l-49 -72q27 6 62 6q80 0 132 -38t52 -113q0 -86 -73.5 -140.5t-213.5 -54.5 q-124 0 -223 43z" />
<glyph unicode="&#xc8;" horiz-adv-x="1230" d="M475 295h686v-295h-1022v1454h1004v-295h-668v-282h574v-273h-574v-309zM565 1552l-196 324h297l106 -266z" />
<glyph unicode="&#xc9;" horiz-adv-x="1230" d="M946 1874l-194 -324l-209 58l106 266h297zM475 295h686v-295h-1022v1454h1004v-295h-668v-282h574v-273h-574v-309z" />
<glyph unicode="&#xca;" horiz-adv-x="1230" d="M483 1579l-168 74l226 221h235l223 -221l-168 -74l-174 129zM475 295h686v-295h-1022v1454h1004v-295h-668v-282h574v-273h-574v-309z" />
<glyph unicode="&#xcb;" horiz-adv-x="1230" d="M578 1595h-271v265h271v-265zM1008 1595h-271v265h271v-265zM475 295h686v-295h-1022v1454h1004v-295h-668v-282h574v-273h-574v-309z" />
<glyph unicode="&#xcc;" horiz-adv-x="614" d="M475 0h-336v1454h336v-1454zM213 1552l-197 324h297l107 -266z" />
<glyph unicode="&#xcd;" horiz-adv-x="614" d="M475 0h-336v1454h336v-1454zM594 1874l-195 -324l-209 58l107 266h297z" />
<glyph unicode="&#xce;" horiz-adv-x="614" d="M475 0h-336v1454h336v-1454zM133 1579l-168 74l225 221h236l223 -221l-168 -74l-174 129z" />
<glyph unicode="&#xcf;" horiz-adv-x="614" d="M475 0h-336v1454h336v-1454zM227 1595h-270v265h270v-265zM657 1595h-270v265h270v-265z" />
<glyph unicode="&#xd0;" horiz-adv-x="1478" d="M690 0h-543v610h-88v242h88v602h543q175 0 314.5 -56.5t228.5 -156t135.5 -230t46.5 -282.5q0 -330 -198.5 -529.5t-526.5 -199.5zM1073 729q0 195 -102 312.5t-281 117.5h-207v-307h262v-242h-262v-315h207q180 0 281.5 120.5t101.5 313.5z" />
<glyph unicode="&#xd1;" horiz-adv-x="1554" d="M1145 0l-670 831v-831h-336v1454h262l678 -854v854h336v-1454h-270zM903 1581q-53 0 -101.5 23.5t-91 47t-79.5 23.5q-25 0 -44 -10t-28.5 -22.5t-15.5 -28.5t-7 -24.5t-1 -12.5h-177q0 21 8 54t28 75t48.5 77.5t74.5 60t101 24.5t103 -25t89.5 -49.5t80.5 -24.5 q26 0 46.5 10.5t31.5 24t17.5 29.5t8.5 25.5t2 13.5h177q0 -16 -8.5 -47t-29.5 -74t-50.5 -80.5t-77.5 -63.5t-105 -26z" />
<glyph unicode="&#xd2;" horiz-adv-x="1503" d="M750 -12q-151 0 -282.5 63t-220 167t-139.5 237.5t-51 273.5q0 143 53 276.5t144.5 234.5t223 161.5t278.5 60.5q121 0 231 -41t192.5 -113t143 -165.5t92 -201.5t31.5 -218q0 -142 -52.5 -276t-143.5 -235.5t-222 -162.5t-278 -61zM399 725q0 -114 40 -212.5t122.5 -162 t192.5 -63.5q68 0 125.5 25t98.5 68t69.5 99.5t42.5 120t14 129.5q0 115 -40 212.5t-122 159.5t-190 62q-84 0 -153 -37.5t-111.5 -99.5t-65.5 -139.5t-23 -161.5zM664 1552l-197 324h297l106 -266z" />
<glyph unicode="&#xd3;" horiz-adv-x="1503" d="M1044 1874l-194 -324l-209 58l107 266h296zM750 -12q-151 0 -282.5 63t-220 167t-139.5 237.5t-51 273.5q0 143 53 276.5t144.5 234.5t223 161.5t278.5 60.5q121 0 231 -41t192.5 -113t143 -165.5t92 -201.5t31.5 -218q0 -142 -52.5 -276t-143.5 -235.5t-222 -162.5 t-278 -61zM399 725q0 -114 40 -212.5t122.5 -162t192.5 -63.5q68 0 125.5 25t98.5 68t69.5 99.5t42.5 120t14 129.5q0 115 -40 212.5t-122 159.5t-190 62q-84 0 -153 -37.5t-111.5 -99.5t-65.5 -139.5t-23 -161.5z" />
<glyph unicode="&#xd4;" horiz-adv-x="1503" d="M582 1579l-168 74l225 221h235l224 -221l-168 -74l-174 129zM750 -12q-151 0 -282.5 63t-220 167t-139.5 237.5t-51 273.5q0 143 53 276.5t144.5 234.5t223 161.5t278.5 60.5q121 0 231 -41t192.5 -113t143 -165.5t92 -201.5t31.5 -218q0 -142 -52.5 -276t-143.5 -235.5 t-222 -162.5t-278 -61zM399 725q0 -114 40 -212.5t122.5 -162t192.5 -63.5q68 0 125.5 25t98.5 68t69.5 99.5t42.5 120t14 129.5q0 115 -40 212.5t-122 159.5t-190 62q-84 0 -153 -37.5t-111.5 -99.5t-65.5 -139.5t-23 -161.5z" />
<glyph unicode="&#xd5;" horiz-adv-x="1503" d="M750 -12q-151 0 -282.5 63t-220 167t-139.5 237.5t-51 273.5q0 143 53 276.5t144.5 234.5t223 161.5t278.5 60.5q121 0 231 -41t192.5 -113t143 -165.5t92 -201.5t31.5 -218q0 -142 -52.5 -276t-143.5 -235.5t-222 -162.5t-278 -61zM399 725q0 -114 40 -212.5t122.5 -162 t192.5 -63.5q68 0 125.5 25t98.5 68t69.5 99.5t42.5 120t14 129.5q0 115 -40 212.5t-122 159.5t-190 62q-84 0 -153 -37.5t-111.5 -99.5t-65.5 -139.5t-23 -161.5zM887 1583q-42 0 -82.5 14.5t-66.5 32.5t-60 32.5t-64 14.5q-25 0 -44 -10t-28.5 -22.5t-15.5 -28.5t-7 -24.5 t-1 -12.5h-176q0 21 8 54t28 75t48.5 77.5t74.5 60t101 24.5q43 0 83 -15.5t65.5 -33.5t58.5 -33.5t65 -15.5q26 0 47 10t31.5 24t17.5 30t9 25t2 13h176q0 -12 -6.5 -36.5t-19 -58t-34.5 -67.5t-50.5 -63t-70 -47.5t-89.5 -18.5z" />
<glyph unicode="&#xd6;" horiz-adv-x="1503" d="M676 1595h-270v265h270v-265zM1106 1595h-270v265h270v-265zM750 -12q-151 0 -282.5 63t-220 167t-139.5 237.5t-51 273.5q0 143 53 276.5t144.5 234.5t223 161.5t278.5 60.5q121 0 231 -41t192.5 -113t143 -165.5t92 -201.5t31.5 -218q0 -142 -52.5 -276t-143.5 -235.5 t-222 -162.5t-278 -61zM399 725q0 -114 40 -212.5t122.5 -162t192.5 -63.5q68 0 125.5 25t98.5 68t69.5 99.5t42.5 120t14 129.5q0 115 -40 212.5t-122 159.5t-190 62q-84 0 -153 -37.5t-111.5 -99.5t-65.5 -139.5t-23 -161.5z" />
<glyph unicode="&#xd7;" horiz-adv-x="991" d="M698 567l197 -196l-205 -203l-196 194l-195 -194l-203 203l195 194l-185 187l205 202l185 -184l184 184l203 -202z" />
<glyph unicode="&#xd8;" horiz-adv-x="1507" d="M1087 1454h363l-174 -244q83 -102 127.5 -229t44.5 -258q0 -142 -52.5 -276t-143.5 -235.5t-222 -162.5t-278 -61q-163 0 -295 69l-41 -57h-361l172 244q-80 102 -124 228t-44 257q0 143 53 276.5t144.5 234.5t223 161.5t278.5 60.5q155 0 289 -67zM1106 729 q0 103 -35 193l-436 -613q58 -22 121 -22q68 0 125.5 25t98.5 68t69.5 99.5t42.5 120t14 129.5zM401 725q0 -108 33 -193l432 611q-58 20 -112 20q-84 0 -153 -37.5t-111.5 -99.5t-65.5 -139.5t-23 -161.5z" />
<glyph unicode="&#xd9;" horiz-adv-x="1525" d="M762 287q83 0 145 35.5t96.5 97t51 134t16.5 157.5v743h336v-743q0 -154 -38.5 -283t-115 -228.5t-202 -155.5t-289.5 -56q-136 0 -245.5 39t-183 105.5t-123 159.5t-71.5 197.5t-22 221.5v743h336v-743q0 -87 17 -160.5t52 -134t96.5 -95t143.5 -34.5zM670 1552 l-197 324h297l107 -266z" />
<glyph unicode="&#xda;" horiz-adv-x="1525" d="M1051 1874l-195 -324l-209 58l107 266h297zM762 287q83 0 145 35.5t96.5 97t51 134t16.5 157.5v743h336v-743q0 -154 -38.5 -283t-115 -228.5t-202 -155.5t-289.5 -56q-136 0 -245.5 39t-183 105.5t-123 159.5t-71.5 197.5t-22 221.5v743h336v-743q0 -87 17 -160.5 t52 -134t96.5 -95t143.5 -34.5z" />
<glyph unicode="&#xdb;" horiz-adv-x="1525" d="M588 1579l-168 74l225 221h236l223 -221l-168 -74l-174 129zM762 287q83 0 145 35.5t96.5 97t51 134t16.5 157.5v743h336v-743q0 -154 -38.5 -283t-115 -228.5t-202 -155.5t-289.5 -56q-136 0 -245.5 39t-183 105.5t-123 159.5t-71.5 197.5t-22 221.5v743h336v-743 q0 -87 17 -160.5t52 -134t96.5 -95t143.5 -34.5z" />
<glyph unicode="&#xdc;" horiz-adv-x="1525" d="M682 1595h-270v265h270v-265zM1112 1595h-270v265h270v-265zM762 287q83 0 145 35.5t96.5 97t51 134t16.5 157.5v743h336v-743q0 -154 -38.5 -283t-115 -228.5t-202 -155.5t-289.5 -56q-136 0 -245.5 39t-183 105.5t-123 159.5t-71.5 197.5t-22 221.5v743h336v-743 q0 -87 17 -160.5t52 -134t96.5 -95t143.5 -34.5z" />
<glyph unicode="&#xdd;" horiz-adv-x="1327" d="M-16 1454h364l314 -668l319 668h365l-517 -958v-496h-335v500zM950 1874l-194 -324l-209 58l106 266h297z" />
<glyph unicode="&#xde;" horiz-adv-x="1239" d="M727 1200q100 0 190 -42.5t151.5 -111t97.5 -157t36 -178.5q0 -129 -57 -241t-164.5 -182.5t-241.5 -70.5h-264v-217h-336v1454h336v-254h252zM721 512q62 0 103.5 56.5t41.5 142.5t-47 141t-108 55h-236v-395h246z" />
<glyph unicode="&#xdf;" horiz-adv-x="1146" d="M512 -12v301q107 0 174.5 47t67.5 137q0 84 -59.5 132t-131.5 48h-45v293h41q58 0 89.5 32.5t31.5 86.5q0 36 -14 61.5t-36 37.5t-41 17t-36 5q-38 0 -66 -17t-41 -44.5t-18.5 -53.5t-5.5 -53v-1018h-311v1075q0 166 135.5 276.5t335.5 110.5q181 0 295 -91.5t114 -248.5 q0 -101 -47.5 -184.5t-114.5 -112.5q125 -42 197 -144.5t72 -246.5q0 -97 -33.5 -174t-89 -127t-132 -83t-158.5 -47t-173 -15z" />
<glyph unicode="&#xe0;" horiz-adv-x="1208" d="M418 -20q-160 0 -266.5 98t-106.5 244q0 158 129 258t332 100q144 0 242 -45v49q0 186 -216 186q-158 0 -335 -118l-97 204q215 140 465 140q244 0 377 -116t133 -335v-276q0 -49 18.5 -69.5t65.5 -23.5v-276q-81 -16 -158 -16q-172 3 -196 137l-6 49q-72 -92 -171 -141 t-210 -49zM514 215q52 0 103 18.5t83 49.5q48 38 48 77v103q-100 35 -187 35q-89 0 -148 -42t-59 -106q0 -58 45.5 -96.5t114.5 -38.5zM473 1174l-197 323h297l107 -266z" />
<glyph unicode="&#xe1;" horiz-adv-x="1208" d="M418 -20q-160 0 -266.5 98t-106.5 244q0 158 129 258t332 100q144 0 242 -45v49q0 186 -216 186q-158 0 -335 -118l-97 204q215 140 465 140q244 0 377 -116t133 -335v-276q0 -49 18.5 -69.5t65.5 -23.5v-276q-81 -16 -158 -16q-172 3 -196 137l-6 49q-72 -92 -171 -141 t-210 -49zM514 215q52 0 103 18.5t83 49.5q48 38 48 77v103q-100 35 -187 35q-89 0 -148 -42t-59 -106q0 -58 45.5 -96.5t114.5 -38.5zM854 1495l-195 -324l-208 58l106 266h297z" />
<glyph unicode="&#xe2;" horiz-adv-x="1208" d="M418 -20q-160 0 -266.5 98t-106.5 244q0 158 129 258t332 100q144 0 242 -45v49q0 186 -216 186q-158 0 -335 -118l-97 204q215 140 465 140q244 0 377 -116t133 -335v-276q0 -49 18.5 -69.5t65.5 -23.5v-276q-81 -16 -158 -16q-172 3 -196 137l-6 49q-72 -92 -171 -141 t-210 -49zM514 215q52 0 103 18.5t83 49.5q48 38 48 77v103q-100 35 -187 35q-89 0 -148 -42t-59 -106q0 -58 45.5 -96.5t114.5 -38.5zM391 1200l-168 74l226 221h235l223 -221l-168 -74l-174 129z" />
<glyph unicode="&#xe3;" horiz-adv-x="1208" d="M418 -20q-160 0 -266.5 98t-106.5 244q0 158 129 258t332 100q144 0 242 -45v49q0 186 -216 186q-158 0 -335 -118l-97 204q215 140 465 140q244 0 377 -116t133 -335v-276q0 -49 18.5 -69.5t65.5 -23.5v-276q-81 -16 -158 -16q-172 3 -196 137l-6 49q-72 -92 -171 -141 t-210 -49zM514 215q52 0 103 18.5t83 49.5q48 38 48 77v103q-100 35 -187 35q-89 0 -148 -42t-59 -106q0 -58 45.5 -96.5t114.5 -38.5zM694 1204q-53 0 -101.5 23.5t-91 47t-79.5 23.5q-25 0 -44 -10t-28.5 -22.5t-15.5 -28.5t-7 -24.5t-1 -12.5h-176q0 21 8 54t28 75 t48.5 77.5t74.5 60t101 24.5q43 0 83 -15.5t65.5 -33.5t58.5 -33.5t65 -15.5q26 0 46.5 10t31.5 24t17.5 30t8.5 25t2 13h177q0 -16 -8.5 -47t-29.5 -74t-50.5 -80.5t-77.5 -63.5t-105 -26z" />
<glyph unicode="&#xe4;" horiz-adv-x="1208" d="M418 -20q-160 0 -266.5 98t-106.5 244q0 158 129 258t332 100q144 0 242 -45v49q0 186 -216 186q-158 0 -335 -118l-97 204q215 140 465 140q244 0 377 -116t133 -335v-276q0 -49 18.5 -69.5t65.5 -23.5v-276q-81 -16 -158 -16q-172 3 -196 137l-6 49q-72 -92 -171 -141 t-210 -49zM514 215q52 0 103 18.5t83 49.5q48 38 48 77v103q-100 35 -187 35q-89 0 -148 -42t-59 -106q0 -58 45.5 -96.5t114.5 -38.5zM485 1217h-270v264h270v-264zM915 1217h-270v264h270v-264z" />
<glyph unicode="&#xe5;" horiz-adv-x="1208" d="M418 -20q-160 0 -266.5 98t-106.5 244q0 158 129 258t332 100q144 0 242 -45v49q0 186 -216 186q-158 0 -335 -118l-97 204q215 140 465 140q244 0 377 -116t133 -335v-276q0 -49 18.5 -69.5t65.5 -23.5v-276q-81 -16 -158 -16q-172 3 -196 137l-6 49q-72 -92 -171 -141 t-210 -49zM514 215q52 0 103 18.5t83 49.5q48 38 48 77v103q-100 35 -187 35q-89 0 -148 -42t-59 -106q0 -58 45.5 -96.5t114.5 -38.5zM346 1327q0 81 59 124.5t160 43.5t159 -43t58 -125q0 -80 -58.5 -123t-158.5 -43q-101 0 -160 43t-59 123zM565 1399q-35 0 -58.5 -19.5 t-23.5 -50.5t23.5 -51.5t58.5 -20.5q33 0 57.5 20.5t24.5 51.5t-23.5 50.5t-58.5 19.5z" />
<glyph unicode="&#xe6;" horiz-adv-x="1925" d="M418 -20q-158 0 -264.5 98t-106.5 244q0 158 129 258t330 100q131 0 231 -41q0 2 3 28.5t5 32.5q-9 170 -213 170q-159 0 -333 -118l-99 204q218 140 465 140q246 0 377 -131q151 131 371 131q134 0 244 -45t181.5 -122.5t110.5 -178t39 -213.5q0 -47 -8 -101h-801 q7 -103 78 -162t168 -59q75 0 139.5 36t87.5 93l279 -78q-65 -130 -200 -208t-316 -78q-153 0 -273 57.5t-196 157.5q-48 -72 -123.5 -122.5t-152 -71.5t-152.5 -21zM514 215q53 0 103 18.5t83 49.5q47 37 50 75q-4 5 -6.5 28.5t-4.5 50.5t-2 30q-91 31 -174 31 q-91 0 -149 -41.5t-58 -106.5q0 -58 45 -96.5t113 -38.5zM1073 635h469q-9 101 -73.5 163t-161.5 62t-161 -62t-73 -163z" />
<glyph unicode="&#xe7;" horiz-adv-x="1171" d="M401 -375l62 115q26 -15 79 -28t105 -13q115 0 115 65q0 66 -111 66q-73 0 -162 -23l86 175q-160 12 -281 92t-182 201t-61 264q0 112 39.5 212.5t112 177.5t183 122t243.5 45q179 0 309 -77t195 -208l-320 -96q-63 102 -186 102q-103 0 -171.5 -77t-68.5 -201 q0 -125 69 -204t171 -79q61 0 112 29t76 77l320 -98q-56 -114 -166.5 -188.5t-261.5 -91.5l-41 -62q27 6 61 6q80 0 132 -38t52 -113q0 -86 -73 -140.5t-213 -54.5q-125 0 -224 43z" />
<glyph unicode="&#xe8;" horiz-adv-x="1236" d="M627 -20q-132 0 -242.5 44.5t-183 119.5t-112.5 174t-40 208q0 116 39.5 219.5t111.5 181.5t182.5 123.5t244.5 45.5t244 -45.5t181 -122.5t109.5 -176.5t38.5 -210.5q0 -51 -8 -105h-795q7 -103 76.5 -162t163.5 -59q74 0 139 36t88 93l279 -78q-65 -130 -200 -208 t-316 -78zM391 639h463q-9 100 -73 160.5t-158 60.5q-95 0 -159 -60.5t-73 -160.5zM530 1174l-196 323h297l106 -266z" />
<glyph unicode="&#xe9;" horiz-adv-x="1236" d="M911 1495l-194 -324l-209 58l106 266h297zM627 -20q-132 0 -242.5 44.5t-183 119.5t-112.5 174t-40 208q0 116 39.5 219.5t111.5 181.5t182.5 123.5t244.5 45.5t244 -45.5t181 -122.5t109.5 -176.5t38.5 -210.5q0 -51 -8 -105h-795q7 -103 76.5 -162t163.5 -59 q74 0 139 36t88 93l279 -78q-65 -130 -200 -208t-316 -78zM391 639h463q-9 100 -73 160.5t-158 60.5q-95 0 -159 -60.5t-73 -160.5z" />
<glyph unicode="&#xea;" horiz-adv-x="1236" d="M449 1200l-168 74l225 221h235l224 -221l-168 -74l-174 129zM627 -20q-132 0 -242.5 44.5t-183 119.5t-112.5 174t-40 208q0 116 39.5 219.5t111.5 181.5t182.5 123.5t244.5 45.5t244 -45.5t181 -122.5t109.5 -176.5t38.5 -210.5q0 -51 -8 -105h-795q7 -103 76.5 -162 t163.5 -59q74 0 139 36t88 93l279 -78q-65 -130 -200 -208t-316 -78zM391 639h463q-9 100 -73 160.5t-158 60.5q-95 0 -159 -60.5t-73 -160.5z" />
<glyph unicode="&#xeb;" horiz-adv-x="1236" d="M545 1217h-271v264h271v-264zM975 1217h-270v264h270v-264zM627 -20q-132 0 -242.5 44.5t-183 119.5t-112.5 174t-40 208q0 116 39.5 219.5t111.5 181.5t182.5 123.5t244.5 45.5t244 -45.5t181 -122.5t109.5 -176.5t38.5 -210.5q0 -51 -8 -105h-795q7 -103 76.5 -162 t163.5 -59q74 0 139 36t88 93l279 -78q-65 -130 -200 -208t-316 -78zM391 639h463q-9 100 -73 160.5t-158 60.5q-95 0 -159 -60.5t-73 -160.5z" />
<glyph unicode="&#xec;" d="M438 0h-327v1075h327v-1075zM182 1174l-196 323h297l106 -266z" />
<glyph unicode="&#xed;" d="M563 1495l-194 -324l-209 58l106 266h297zM438 0h-327v1075h327v-1075z" />
<glyph unicode="&#xee;" d="M100 1200l-168 74l226 221h235l223 -221l-167 -74l-175 129zM438 0h-327v1075h327v-1075z" />
<glyph unicode="&#xef;" d="M195 1217h-271v264h271v-264zM625 1217h-271v264h271v-264zM438 0h-327v1075h327v-1075z" />
<glyph unicode="&#xf0;" horiz-adv-x="1263" d="M1010 1458l90 -125l-135 -73q114 -138 176.5 -313.5t62.5 -350.5q0 -286 -157.5 -451t-419.5 -165q-163 0 -294 64t-204.5 178t-73.5 257q0 133 65 245t177.5 177.5t247.5 65.5q94 0 179.5 -35t143.5 -96q-42 175 -153 315l-176 -94l-90 125l157 84q-133 118 -344 229 h408q97 -49 182 -121zM391 479q0 -97 67 -160t171 -63t171.5 65t67.5 162t-67 159.5t-170 62.5q-104 0 -172 -64t-68 -162z" />
<glyph unicode="&#xf1;" horiz-adv-x="1251" d="M1149 688v-688h-328v604q0 102 -39 152.5t-106 50.5q-69 0 -139 -55t-99 -136v-616h-327v1075h295v-180q60 96 169 148.5t248 52.5q326 0 326 -408zM793 1204q-42 0 -82.5 14.5t-66.5 32.5t-60 32.5t-64 14.5q-25 0 -44 -10t-28.5 -22.5t-15.5 -28.5t-7 -24.5t-1 -12.5 h-176q0 21 8 54t28 75t48.5 77.5t74.5 60t101 24.5q43 0 83 -15.5t65.5 -33.5t58.5 -33.5t65 -15.5q26 0 47 10t31.5 24t17.5 30t9 25t2 13h176q0 -12 -6.5 -36.5t-19 -58t-34.5 -67.5t-50.5 -63t-70 -47.5t-89.5 -18.5z" />
<glyph unicode="&#xf2;" horiz-adv-x="1247" d="M625 -20q-134 0 -244.5 45.5t-182 122.5t-110.5 177.5t-39 211.5q0 112 39 212.5t110.5 178t182 123t244.5 45.5q133 0 243 -45.5t182 -123t111 -178t39 -212.5q0 -111 -39 -211.5t-110.5 -177.5t-181.5 -122.5t-244 -45.5zM385 537q0 -125 68 -203t172 -78 q102 0 169.5 79t67.5 202q0 125 -67 202.5t-170 77.5t-171.5 -78.5t-68.5 -201.5zM532 1174l-196 323h297l106 -266z" />
<glyph unicode="&#xf3;" horiz-adv-x="1247" d="M911 1495l-194 -324l-209 58l106 266h297zM625 -20q-134 0 -244.5 45.5t-182 122.5t-110.5 177.5t-39 211.5q0 112 39 212.5t110.5 178t182 123t244.5 45.5q133 0 243 -45.5t182 -123t111 -178t39 -212.5q0 -111 -39 -211.5t-110.5 -177.5t-181.5 -122.5t-244 -45.5z M385 537q0 -125 68 -203t172 -78q102 0 169.5 79t67.5 202q0 125 -67 202.5t-170 77.5t-171.5 -78.5t-68.5 -201.5z" />
<glyph unicode="&#xf4;" horiz-adv-x="1247" d="M449 1200l-168 74l225 221h235l224 -221l-168 -74l-174 129zM625 -20q-134 0 -244.5 45.5t-182 122.5t-110.5 177.5t-39 211.5q0 112 39 212.5t110.5 178t182 123t244.5 45.5q133 0 243 -45.5t182 -123t111 -178t39 -212.5q0 -111 -39 -211.5t-110.5 -177.5 t-181.5 -122.5t-244 -45.5zM385 537q0 -125 68 -203t172 -78q102 0 169.5 79t67.5 202q0 125 -67 202.5t-170 77.5t-171.5 -78.5t-68.5 -201.5z" />
<glyph unicode="&#xf5;" horiz-adv-x="1247" d="M625 -20q-134 0 -244.5 45.5t-182 122.5t-110.5 177.5t-39 211.5q0 112 39 212.5t110.5 178t182 123t244.5 45.5q133 0 243 -45.5t182 -123t111 -178t39 -212.5q0 -111 -39 -211.5t-110.5 -177.5t-181.5 -122.5t-244 -45.5zM385 537q0 -125 68 -203t172 -78 q102 0 169.5 79t67.5 202q0 125 -67 202.5t-170 77.5t-171.5 -78.5t-68.5 -201.5zM754 1204q-42 0 -82.5 14.5t-66.5 32.5t-60 32.5t-64 14.5q-25 0 -44 -10t-28.5 -22.5t-15.5 -28.5t-7 -24.5t-1 -12.5h-176q0 21 8 54t28 75t48.5 77.5t74.5 60t101 24.5q43 0 83 -15.5 t65.5 -33.5t58.5 -33.5t65 -15.5q26 0 47 10t31.5 24t17.5 30t9 25t2 13h176q0 -12 -6.5 -36.5t-19 -58t-34.5 -67.5t-50.5 -63t-70 -47.5t-89.5 -18.5z" />
<glyph unicode="&#xf6;" horiz-adv-x="1247" d="M545 1217h-271v264h271v-264zM975 1217h-270v264h270v-264zM625 -20q-134 0 -244.5 45.5t-182 122.5t-110.5 177.5t-39 211.5q0 112 39 212.5t110.5 178t182 123t244.5 45.5q133 0 243 -45.5t182 -123t111 -178t39 -212.5q0 -111 -39 -211.5t-110.5 -177.5t-181.5 -122.5 t-244 -45.5zM385 537q0 -125 68 -203t172 -78q102 0 169.5 79t67.5 202q0 125 -67 202.5t-170 77.5t-171.5 -78.5t-68.5 -201.5z" />
<glyph unicode="&#xf7;" horiz-adv-x="1019" d="M649 872h-276v293h276v-293zM649 78h-276v293h276v-293zM924 492h-828v260h828v-260z" />
<glyph unicode="&#xf8;" horiz-adv-x="1247" d="M68 -10l133 153q-73 76 -112.5 178.5t-39.5 215.5q0 112 39 212.5t110.5 178t182 123t244.5 45.5q169 0 305 -76l55 65h180l-127 -147q78 -76 120 -180.5t42 -220.5q0 -111 -39 -211.5t-110.5 -177.5t-181.5 -122.5t-244 -45.5q-187 0 -318 81l-61 -71h-178zM625 256 q102 0 169.5 79t67.5 202q0 90 -39 157l-325 -401q52 -37 127 -37zM385 537q0 -90 33 -152l323 399q-58 33 -116 33q-103 0 -171.5 -78.5t-68.5 -201.5z" />
<glyph unicode="&#xf9;" horiz-adv-x="1296" d="M438 -20q-163 0 -249.5 104t-86.5 303v688h328v-616q0 -98 39 -150.5t111 -52.5q148 0 235 156v663h328v-706q0 -49 18.5 -69.5t65.5 -23.5v-276q-91 -16 -156 -16q-172 3 -199 137l-6 65q-143 -206 -428 -206zM530 1174l-196 323h297l106 -266z" />
<glyph unicode="&#xfa;" horiz-adv-x="1296" d="M911 1495l-194 -324l-209 58l106 266h297zM438 -20q-163 0 -249.5 104t-86.5 303v688h328v-616q0 -98 39 -150.5t111 -52.5q148 0 235 156v663h328v-706q0 -49 18.5 -69.5t65.5 -23.5v-276q-91 -16 -156 -16q-172 3 -199 137l-6 65q-143 -206 -428 -206z" />
<glyph unicode="&#xfb;" horiz-adv-x="1296" d="M449 1200l-168 74l225 221h235l224 -221l-168 -74l-174 129zM438 -20q-163 0 -249.5 104t-86.5 303v688h328v-616q0 -98 39 -150.5t111 -52.5q148 0 235 156v663h328v-706q0 -49 18.5 -69.5t65.5 -23.5v-276q-91 -16 -156 -16q-172 3 -199 137l-6 65q-143 -206 -428 -206 z" />
<glyph unicode="&#xfc;" horiz-adv-x="1296" d="M543 1217h-271v264h271v-264zM973 1217h-271v264h271v-264zM438 -20q-163 0 -249.5 104t-86.5 303v688h328v-616q0 -98 39 -150.5t111 -52.5q148 0 235 156v663h328v-706q0 -49 18.5 -69.5t65.5 -23.5v-276q-91 -16 -156 -16q-172 3 -199 137l-6 65q-143 -206 -428 -206z " />
<glyph unicode="&#xfd;" horiz-adv-x="1116" d="M106 -442v280q85 -26 150 -26q53 0 86.5 43t56.5 145l-407 1075h336l252 -794l215 794h305l-412 -1249q-44 -136 -152.5 -217t-248.5 -82q-101 0 -181 31zM868 1495l-194 -324l-209 58l106 266h297z" />
<glyph unicode="&#xfe;" horiz-adv-x="1228" d="M1182 524q-1 -151 -75 -285t-200 -214t-270 -80q-77 0 -126.5 22.5t-64.5 48.5v-452h-335v1890h335v-424q58 78 205 78q94 0 179 -34t148 -91.5t110 -132t70.5 -158.5t23.5 -168zM844 530q0 120 -57.5 202.5t-155.5 82.5q-114 0 -185 -135v-318q0 -40 57.5 -82t121.5 -42 q96 0 157.5 83t61.5 209z" />
<glyph unicode="&#xff;" horiz-adv-x="1116" d="M106 -442v280q85 -26 150 -26q53 0 86.5 43t56.5 145l-407 1075h336l252 -794l215 794h305l-412 -1249q-44 -136 -152.5 -217t-248.5 -82q-101 0 -181 31zM500 1217h-271v264h271v-264zM930 1217h-271v264h271v-264z" />
<glyph unicode="&#x100;" horiz-adv-x="1378" d="M352 0h-356l559 1454h272l557 -1454h-356l-113 326h-452zM858 557l-168 541l-174 -541h342zM1004 1651h-623v198h623v-198z" />
<glyph unicode="&#x101;" horiz-adv-x="1208" d="M418 -20q-160 0 -266.5 98t-106.5 244q0 158 129 258t332 100q144 0 242 -45v49q0 186 -216 186q-158 0 -335 -118l-97 204q215 140 465 140q244 0 377 -116t133 -335v-276q0 -49 18.5 -69.5t65.5 -23.5v-276q-81 -16 -158 -16q-172 3 -196 137l-6 49q-72 -92 -171 -141 t-210 -49zM514 215q52 0 103 18.5t83 49.5q48 38 48 77v103q-100 35 -187 35q-89 0 -148 -42t-59 -106q0 -58 45.5 -96.5t114.5 -38.5zM879 1272h-623v198h623v-198z" />
<glyph unicode="&#x102;" horiz-adv-x="1378" d="M352 0h-356l559 1454h272l557 -1454h-356l-113 326h-452zM858 557l-168 541l-174 -541h342zM690 1716q48 0 83.5 44.5t41.5 113.5h170q0 -132 -82.5 -216.5t-212.5 -84.5q-129 0 -212 84.5t-83 216.5h174q0 -65 36 -111.5t85 -46.5z" />
<glyph unicode="&#x103;" horiz-adv-x="1208" d="M418 -20q-160 0 -266.5 98t-106.5 244q0 158 129 258t332 100q144 0 242 -45v49q0 186 -216 186q-158 0 -335 -118l-97 204q215 140 465 140q244 0 377 -116t133 -335v-276q0 -49 18.5 -69.5t65.5 -23.5v-276q-81 -16 -158 -16q-172 3 -196 137l-6 49q-72 -92 -171 -141 t-210 -49zM514 215q52 0 103 18.5t83 49.5q48 38 48 77v103q-100 35 -187 35q-89 0 -148 -42t-59 -106q0 -58 45.5 -96.5t114.5 -38.5zM563 1337q48 0 83.5 44.5t41.5 113.5h170q0 -132 -82.5 -216.5t-212.5 -84.5q-129 0 -212 84.5t-83 216.5h174q0 -65 36 -111.5t85 -46.5 z" />
<glyph unicode="&#x104;" horiz-adv-x="1378" d="M1286 -420q-117 17 -179.5 69t-62.5 122q0 124 173 229h-189l-113 326h-452l-111 -326h-356l559 1454h272l557 -1454q-167 -98 -167 -182q0 -36 33.5 -57.5t99.5 -22.5zM858 557l-168 541l-174 -541h342z" />
<glyph unicode="&#x105;" horiz-adv-x="1208" d="M1061 -420q-117 17 -179.5 69t-62.5 122q0 113 150 215q-143 15 -164 135l-6 49q-72 -92 -171 -141t-210 -49q-160 0 -266.5 98t-106.5 244q0 158 129 258t332 100q144 0 242 -45v49q0 186 -216 186q-158 0 -335 -118l-97 204q215 140 465 140q244 0 377 -116t133 -335 v-276q0 -49 18.5 -69.5t65.5 -23.5v-276q-168 -98 -168 -182q0 -36 33.5 -57.5t99.5 -22.5zM514 215q52 0 103 18.5t83 49.5q48 38 48 77v103q-100 35 -187 35q-89 0 -148 -42t-59 -106q0 -58 45.5 -96.5t114.5 -38.5z" />
<glyph unicode="&#x106;" horiz-adv-x="1357" d="M1042 1874l-194 -324l-209 58l106 266h297zM55 739q0 106 30 210t90 196.5t142.5 163t196 112t242.5 41.5q189 0 334.5 -86.5t216.5 -230.5l-258 -180q-21 55 -56.5 95.5t-77.5 62t-83 31t-84 9.5q-69 0 -127.5 -25t-99 -67.5t-69 -99t-42 -118.5t-13.5 -126 q0 -116 43 -216t125.5 -162t186.5 -62q93 0 176.5 49.5t120.5 150.5l276 -161q-41 -103 -137 -182t-212 -117.5t-233 -38.5q-146 0 -276.5 65t-219.5 170.5t-140.5 241t-51.5 274.5z" />
<glyph unicode="&#x107;" horiz-adv-x="1167" d="M913 1495l-194 -324l-209 58l106 266h297zM49 539q0 112 39.5 212.5t112 177.5t183 122t243.5 45q179 0 308 -77t195 -208l-319 -96q-63 102 -186 102q-103 0 -171.5 -77t-68.5 -201q0 -125 69 -204t171 -79q61 0 112 29t76 77l320 -98q-62 -129 -194 -206.5t-312 -77.5 q-132 0 -242.5 45.5t-183 122.5t-112.5 178t-40 213z" />
<glyph unicode="&#x108;" horiz-adv-x="1357" d="M580 1579l-168 74l225 221h235l224 -221l-168 -74l-174 129zM55 739q0 106 30 210t90 196.5t142.5 163t196 112t242.5 41.5q189 0 334.5 -86.5t216.5 -230.5l-258 -180q-21 55 -56.5 95.5t-77.5 62t-83 31t-84 9.5q-69 0 -127.5 -25t-99 -67.5t-69 -99t-42 -118.5 t-13.5 -126q0 -116 43 -216t125.5 -162t186.5 -62q93 0 176.5 49.5t120.5 150.5l276 -161q-41 -103 -137 -182t-212 -117.5t-233 -38.5q-146 0 -276.5 65t-219.5 170.5t-140.5 241t-51.5 274.5z" />
<glyph unicode="&#x109;" horiz-adv-x="1167" d="M451 1200l-168 74l225 221h235l224 -221l-168 -74l-174 129zM49 539q0 112 39.5 212.5t112 177.5t183 122t243.5 45q179 0 308 -77t195 -208l-319 -96q-63 102 -186 102q-103 0 -171.5 -77t-68.5 -201q0 -125 69 -204t171 -79q61 0 112 29t76 77l320 -98 q-62 -129 -194 -206.5t-312 -77.5q-132 0 -242.5 45.5t-183 122.5t-112.5 178t-40 213z" />
<glyph unicode="&#x10a;" horiz-adv-x="1357" d="M55 739q0 106 30 210t90 196.5t142.5 163t196 112t242.5 41.5q189 0 334.5 -86.5t216.5 -230.5l-258 -180q-21 55 -56.5 95.5t-77.5 62t-83 31t-84 9.5q-69 0 -127.5 -25t-99 -67.5t-69 -99t-42 -118.5t-13.5 -126q0 -116 43 -216t125.5 -162t186.5 -62q93 0 176.5 49.5 t120.5 150.5l276 -161q-41 -103 -137 -182t-212 -117.5t-233 -38.5q-146 0 -276.5 65t-219.5 170.5t-140.5 241t-51.5 274.5zM903 1593h-295v281h295v-281z" />
<glyph unicode="&#x10b;" horiz-adv-x="1167" d="M49 539q0 112 39.5 212.5t112 177.5t183 122t243.5 45q179 0 308 -77t195 -208l-319 -96q-63 102 -186 102q-103 0 -171.5 -77t-68.5 -201q0 -125 69 -204t171 -79q61 0 112 29t76 77l320 -98q-62 -129 -194 -206.5t-312 -77.5q-132 0 -242.5 45.5t-183 122.5t-112.5 178 t-40 213zM774 1214h-295v281h295v-281z" />
<glyph unicode="&#x10c;" horiz-adv-x="1357" d="M412 1798l168 76l174 -129l174 129l168 -76l-224 -219h-235zM55 739q0 106 30 210t90 196.5t142.5 163t196 112t242.5 41.5q189 0 334.5 -86.5t216.5 -230.5l-258 -180q-21 55 -56.5 95.5t-77.5 62t-83 31t-84 9.5q-69 0 -127.5 -25t-99 -67.5t-69 -99t-42 -118.5 t-13.5 -126q0 -116 43 -216t125.5 -162t186.5 -62q93 0 176.5 49.5t120.5 150.5l276 -161q-41 -103 -137 -182t-212 -117.5t-233 -38.5q-146 0 -276.5 65t-219.5 170.5t-140.5 241t-51.5 274.5z" />
<glyph unicode="&#x10d;" horiz-adv-x="1167" d="M283 1419l168 76l174 -129l174 129l168 -76l-224 -219h-235zM49 539q0 112 39.5 212.5t112 177.5t183 122t243.5 45q179 0 308 -77t195 -208l-319 -96q-63 102 -186 102q-103 0 -171.5 -77t-68.5 -201q0 -125 69 -204t171 -79q61 0 112 29t76 77l320 -98 q-62 -129 -194 -206.5t-312 -77.5q-132 0 -242.5 45.5t-183 122.5t-112.5 178t-40 213z" />
<glyph unicode="&#x10e;" horiz-adv-x="1468" d="M322 1798l167 76l175 -129l174 129l168 -76l-224 -219h-235zM682 0h-543v1454h543q175 0 314.5 -56.5t228.5 -156t135.5 -230t46.5 -282.5q0 -330 -198.5 -529.5t-526.5 -199.5zM1065 729q0 195 -102 312.5t-281 117.5h-207v-864h207q180 0 281.5 120.5t101.5 313.5z" />
<glyph unicode="&#x10f;" horiz-adv-x="1351" d="M1651 1495l-195 -324l-209 58l107 266h297zM559 -20q-146 0 -262.5 73t-181 200.5t-64.5 285.5q0 155 60 282t169 201t246 74q109 0 201.5 -53.5t142.5 -143.5v596h328v-1126q0 -49 18.5 -69.5t65.5 -23.5v-276q-91 -16 -158 -16q-172 3 -196 137l-6 57 q-57 -97 -153.5 -147.5t-209.5 -50.5zM647 256q68 0 130 41t95 109v225q-31 81 -99 133.5t-142 52.5q-104 0 -173 -84.5t-69 -200.5q0 -120 72 -198t186 -78z" />
<glyph unicode="&#x110;" horiz-adv-x="1478" d="M690 0h-543v610h-88v242h88v602h543q175 0 314.5 -56.5t228.5 -156t135.5 -230t46.5 -282.5q0 -330 -198.5 -529.5t-526.5 -199.5zM1073 729q0 195 -102 312.5t-281 117.5h-207v-307h262v-242h-262v-315h207q180 0 281.5 120.5t101.5 313.5z" />
<glyph unicode="&#x111;" horiz-adv-x="1351" d="M559 -20q-146 0 -262.5 73t-181 200.5t-64.5 285.5q0 155 60 282t169 201t246 74q109 0 201.5 -53.5t142.5 -143.5v305h-192v193h192v98h328v-98h125v-193h-125v-835q0 -49 18.5 -69.5t65.5 -23.5v-276q-91 -16 -158 -16q-172 3 -196 137l-6 57q-57 -97 -153.5 -147.5 t-209.5 -50.5zM647 256q68 0 130 41t95 109v225q-31 81 -99 133.5t-142 52.5q-104 0 -173 -84.5t-69 -200.5q0 -120 72 -198t186 -78z" />
<glyph unicode="&#x112;" horiz-adv-x="1230" d="M475 295h686v-295h-1022v1454h1004v-295h-668v-282h574v-273h-574v-309zM971 1651h-623v198h623v-198z" />
<glyph unicode="&#x113;" horiz-adv-x="1236" d="M627 -20q-132 0 -242.5 44.5t-183 119.5t-112.5 174t-40 208q0 116 39.5 219.5t111.5 181.5t182.5 123.5t244.5 45.5t244 -45.5t181 -122.5t109.5 -176.5t38.5 -210.5q0 -51 -8 -105h-795q7 -103 76.5 -162t163.5 -59q74 0 139 36t88 93l279 -78q-65 -130 -200 -208 t-316 -78zM391 639h463q-9 100 -73 160.5t-158 60.5q-95 0 -159 -60.5t-73 -160.5zM936 1272h-623v198h623v-198z" />
<glyph unicode="&#x114;" horiz-adv-x="1230" d="M475 295h686v-295h-1022v1454h1004v-295h-668v-282h574v-273h-574v-309zM657 1716q48 0 83.5 44.5t41.5 113.5h170q0 -132 -82.5 -216.5t-212.5 -84.5q-129 0 -212 84.5t-83 216.5h175q0 -65 35.5 -111.5t84.5 -46.5z" />
<glyph unicode="&#x115;" horiz-adv-x="1236" d="M627 -20q-132 0 -242.5 44.5t-183 119.5t-112.5 174t-40 208q0 116 39.5 219.5t111.5 181.5t182.5 123.5t244.5 45.5t244 -45.5t181 -122.5t109.5 -176.5t38.5 -210.5q0 -51 -8 -105h-795q7 -103 76.5 -162t163.5 -59q74 0 139 36t88 93l279 -78q-65 -130 -200 -208 t-316 -78zM391 639h463q-9 100 -73 160.5t-158 60.5q-95 0 -159 -60.5t-73 -160.5zM623 1337q48 0 83.5 44.5t41.5 113.5h170q0 -132 -82.5 -216.5t-212.5 -84.5q-129 0 -212 84.5t-83 216.5h174q0 -65 36 -111.5t85 -46.5z" />
<glyph unicode="&#x116;" horiz-adv-x="1230" d="M475 295h686v-295h-1022v1454h1004v-295h-668v-282h574v-273h-574v-309zM807 1593h-295v281h295v-281z" />
<glyph unicode="&#x117;" horiz-adv-x="1236" d="M627 -20q-132 0 -242.5 44.5t-183 119.5t-112.5 174t-40 208q0 116 39.5 219.5t111.5 181.5t182.5 123.5t244.5 45.5t244 -45.5t181 -122.5t109.5 -176.5t38.5 -210.5q0 -51 -8 -105h-795q7 -103 76.5 -162t163.5 -59q74 0 139 36t88 93l279 -78q-65 -130 -200 -208 t-316 -78zM391 639h463q-9 100 -73 160.5t-158 60.5q-95 0 -159 -60.5t-73 -160.5zM772 1214h-295v281h295v-281z" />
<glyph unicode="&#x118;" horiz-adv-x="1230" d="M475 295h686v-295h-432q-164 -93 -164 -180q0 -36 33.5 -57.5t99.5 -22.5l-63 -158q-117 17 -179.5 69t-62.5 122q0 124 170 227h-424v1454h1004v-295h-668v-282h574v-273h-574v-309z" />
<glyph unicode="&#x119;" horiz-adv-x="1241" d="M692 -420q-117 17 -179 69t-62 122q0 112 141 211q-124 6 -227.5 52t-171 120.5t-105 170t-37.5 201.5q0 116 39.5 219.5t111.5 181.5t182.5 123.5t244.5 45.5t244 -45.5t181 -122.5t109.5 -176.5t38.5 -210.5q0 -51 -8 -105h-795q7 -103 76.5 -162t163.5 -59 q74 0 139 36t88 93l279 -78q-50 -100 -143.5 -170.5t-217.5 -97.5q-161 -97 -161 -180q0 -36 33.5 -57.5t99.5 -22.5zM393 639h463q-9 100 -73 160.5t-158 60.5q-95 0 -159 -60.5t-73 -160.5z" />
<glyph unicode="&#x11a;" horiz-adv-x="1230" d="M315 1798l168 76l174 -129l174 129l168 -76l-223 -219h-235zM475 295h686v-295h-1022v1454h1004v-295h-668v-282h574v-273h-574v-309z" />
<glyph unicode="&#x11b;" horiz-adv-x="1236" d="M281 1419l168 76l174 -129l174 129l168 -76l-224 -219h-235zM627 -20q-132 0 -242.5 44.5t-183 119.5t-112.5 174t-40 208q0 116 39.5 219.5t111.5 181.5t182.5 123.5t244.5 45.5t244 -45.5t181 -122.5t109.5 -176.5t38.5 -210.5q0 -51 -8 -105h-795q7 -103 76.5 -162 t163.5 -59q74 0 139 36t88 93l279 -78q-65 -130 -200 -208t-316 -78zM391 639h463q-9 100 -73 160.5t-158 60.5q-95 0 -159 -60.5t-73 -160.5z" />
<glyph unicode="&#x11c;" horiz-adv-x="1443" d="M578 1579l-168 74l225 221h235l224 -221l-168 -74l-174 129zM1081 0v141q-151 -151 -354 -151q-179 0 -334.5 104t-245.5 276t-90 367q0 148 54 282.5t146.5 232t222 155t274.5 57.5q190 0 336 -84.5t219 -232.5l-252 -189q-44 96 -129.5 151.5t-184.5 55.5 q-152 0 -248 -126.5t-96 -313.5q0 -190 100.5 -313t256.5 -123q184 0 325 178v49h-280v244h559v-760h-279z" />
<glyph unicode="&#x11d;" horiz-adv-x="1308" d="M535 1200l-168 74l225 221h235l224 -221l-168 -74l-174 129zM528 -4q-138 0 -247.5 73.5t-168.5 197t-59 272.5q0 156 63 283t177.5 200.5t259.5 73.5q118 0 211 -51.5t149 -145.5v176h285v-1001q0 -243 -172.5 -387t-450.5 -144q-322 0 -512 215l175 179 q61 -69 150 -108.5t187 -39.5q61 0 113 16.5t93.5 49.5t65 89t23.5 130v104q-48 -87 -140.5 -134.5t-201.5 -47.5zM643 256q73 0 132.5 41t94.5 109v225q-32 84 -99.5 135t-143.5 51q-103 0 -171.5 -85.5t-68.5 -201.5q0 -118 73 -196t183 -78z" />
<glyph unicode="&#x11e;" horiz-adv-x="1443" d="M1081 0v141q-151 -151 -354 -151q-179 0 -334.5 104t-245.5 276t-90 367q0 148 54 282.5t146.5 232t222 155t274.5 57.5q190 0 336 -84.5t219 -232.5l-252 -189q-44 96 -129.5 151.5t-184.5 55.5q-152 0 -248 -126.5t-96 -313.5q0 -190 100.5 -313t256.5 -123 q184 0 325 178v49h-280v244h559v-760h-279zM752 1716q48 0 83.5 44.5t41.5 113.5h170q0 -132 -82.5 -216.5t-212.5 -84.5q-129 0 -212 84.5t-83 216.5h174q0 -65 36 -111.5t85 -46.5z" />
<glyph unicode="&#x11f;" horiz-adv-x="1308" d="M528 -4q-138 0 -247.5 73.5t-168.5 197t-59 272.5q0 156 63 283t177.5 200.5t259.5 73.5q118 0 211 -51.5t149 -145.5v176h285v-1001q0 -243 -172.5 -387t-450.5 -144q-322 0 -512 215l175 179q61 -69 150 -108.5t187 -39.5q61 0 113 16.5t93.5 49.5t65 89t23.5 130v104 q-48 -87 -140.5 -134.5t-201.5 -47.5zM643 256q73 0 132.5 41t94.5 109v225q-32 84 -99.5 135t-143.5 51q-103 0 -171.5 -85.5t-68.5 -201.5q0 -118 73 -196t183 -78zM709 1337q48 0 83.5 44.5t41.5 113.5h170q0 -132 -82.5 -216.5t-212.5 -84.5q-129 0 -212 84.5t-83 216.5 h174q0 -65 36 -111.5t85 -46.5z" />
<glyph unicode="&#x120;" horiz-adv-x="1443" d="M1081 0v141q-151 -151 -354 -151q-179 0 -334.5 104t-245.5 276t-90 367q0 148 54 282.5t146.5 232t222 155t274.5 57.5q190 0 336 -84.5t219 -232.5l-252 -189q-44 96 -129.5 151.5t-184.5 55.5q-152 0 -248 -126.5t-96 -313.5q0 -190 100.5 -313t256.5 -123 q184 0 325 178v49h-280v244h559v-760h-279zM901 1593h-295v281h295v-281z" />
<glyph unicode="&#x121;" horiz-adv-x="1308" d="M528 -4q-138 0 -247.5 73.5t-168.5 197t-59 272.5q0 156 63 283t177.5 200.5t259.5 73.5q118 0 211 -51.5t149 -145.5v176h285v-1001q0 -243 -172.5 -387t-450.5 -144q-322 0 -512 215l175 179q61 -69 150 -108.5t187 -39.5q61 0 113 16.5t93.5 49.5t65 89t23.5 130v104 q-48 -87 -140.5 -134.5t-201.5 -47.5zM643 256q73 0 132.5 41t94.5 109v225q-32 84 -99.5 135t-143.5 51q-103 0 -171.5 -85.5t-68.5 -201.5q0 -118 73 -196t183 -78zM856 1214h-295v281h295v-281z" />
<glyph unicode="&#x122;" horiz-adv-x="1443" d="M535 -412v129q77 0 77 56v131h267v-144q0 -46 -18 -78t-46 -50t-75.5 -28t-93 -13t-111.5 -3zM1081 0v141q-151 -151 -354 -151q-179 0 -334.5 104t-245.5 276t-90 367q0 148 54 282.5t146.5 232t222 155t274.5 57.5q190 0 336 -84.5t219 -232.5l-252 -189 q-44 96 -129.5 151.5t-184.5 55.5q-152 0 -248 -126.5t-96 -313.5q0 -190 100.5 -313t256.5 -123q184 0 325 178v49h-280v244h559v-760h-279z" />
<glyph unicode="&#x123;" horiz-adv-x="1308" d="M997 1495l-194 -324l-209 58l106 266h297zM528 -4q-138 0 -247.5 73.5t-168.5 197t-59 272.5q0 156 63 283t177.5 200.5t259.5 73.5q118 0 211 -51.5t149 -145.5v176h285v-1001q0 -243 -172.5 -387t-450.5 -144q-322 0 -512 215l175 179q61 -69 150 -108.5t187 -39.5 q61 0 113 16.5t93.5 49.5t65 89t23.5 130v104q-48 -87 -140.5 -134.5t-201.5 -47.5zM643 256q73 0 132.5 41t94.5 109v225q-32 84 -99.5 135t-143.5 51q-103 0 -171.5 -85.5t-68.5 -201.5q0 -118 73 -196t183 -78z" />
<glyph unicode="&#x124;" horiz-adv-x="1529" d="M596 1577l-168 74l225 221h236l223 -221l-168 -74l-174 129zM1055 1454h336v-1454h-336v596h-580v-596h-336v1454h336v-563h580v563z" />
<glyph unicode="&#x125;" horiz-adv-x="1251" d="M662 1206l-144 72l193 215h198l191 -215l-144 -72l-147 125zM1149 688v-688h-328v604q0 101 -41 152t-114 51q-62 0 -130.5 -54t-97.5 -137v-616h-327v1495h327v-600q59 95 157 148t216 53q338 0 338 -408z" />
<glyph unicode="&#x126;" horiz-adv-x="1544" d="M1061 1454h336v-190h104v-156h-104v-1108h-336v596h-580v-596h-336v1108h-102v156h102v190h336v-190h580v190zM481 891h580v217h-580v-217z" />
<glyph unicode="&#x127;" horiz-adv-x="1251" d="M1149 688v-688h-328v604q0 101 -41 152t-114 51q-62 0 -130.5 -54t-97.5 -137v-616h-327v1204h-76v193h76v98h327v-98h240v-193h-240v-309q59 95 157 148t216 53q338 0 338 -408z" />
<glyph unicode="&#x128;" horiz-adv-x="614" d="M475 0h-336v1454h336v-1454zM436 1583q-53 0 -101.5 23.5t-91 47t-79.5 23.5q-25 0 -44 -10t-28.5 -22.5t-15.5 -28.5t-7 -24.5t-1 -12.5h-177q0 21 8 54t28.5 75t49 77.5t74.5 60t101 24.5q43 0 83 -15.5t65.5 -33.5t58.5 -33.5t65 -15.5q26 0 46.5 10t31.5 24t17.5 30 t8.5 25t2 13h177q0 -16 -8.5 -47t-29.5 -74t-50.5 -80.5t-77.5 -63.5t-105 -26z" />
<glyph unicode="&#x129;" d="M438 0h-327v1075h327v-1075zM406 1204q-42 0 -82.5 14.5t-66.5 32.5t-60 32.5t-64 14.5q-25 0 -44 -10t-28.5 -22.5t-15.5 -28.5t-7 -24.5t-1 -12.5h-176q0 21 8 54t28 75t48.5 77.5t74.5 60t101 24.5q43 0 83 -15.5t65.5 -33.5t58.5 -33.5t65 -15.5q26 0 47 10t31.5 24 t17.5 30t9 25t2 13h176q0 -12 -6.5 -36.5t-19 -58t-34.5 -67.5t-50.5 -63t-70 -47.5t-89.5 -18.5z" />
<glyph unicode="&#x12a;" horiz-adv-x="614" d="M475 0h-336v1454h336v-1454zM621 1651h-623v198h623v-198z" />
<glyph unicode="&#x12b;" d="M438 0h-327v1075h327v-1075zM588 1272h-623v198h623v-198z" />
<glyph unicode="&#x12c;" horiz-adv-x="614" d="M475 0h-336v1454h336v-1454zM305 1716q48 0 83.5 44.5t41.5 113.5h170q0 -132 -82.5 -216.5t-212.5 -84.5q-129 0 -212 84.5t-83 216.5h174q0 -65 36 -111.5t85 -46.5z" />
<glyph unicode="&#x12d;" d="M438 0h-327v1075h327v-1075zM274 1337q48 0 83.5 44.5t41.5 113.5h170q0 -132 -82.5 -216.5t-212.5 -84.5q-129 0 -211.5 84.5t-82.5 216.5h174q0 -65 35.5 -111.5t84.5 -46.5z" />
<glyph unicode="&#x12e;" horiz-adv-x="614" d="M377 -420q-117 17 -179.5 69t-62.5 122q0 124 172 229h-168v1454h336v-1454q-168 -98 -168 -182q0 -36 33.5 -57.5t99.5 -22.5z" />
<glyph unicode="&#x12f;" horiz-adv-x="550" d="M340 -420q-117 17 -179.5 69t-62.5 122q0 124 172 229h-159v1075h327v-1075q-168 -98 -168 -182q0 -36 33.5 -57.5t99.5 -22.5zM438 1198h-327v297h327v-297z" />
<glyph unicode="&#x130;" horiz-adv-x="614" d="M475 0h-336v1454h336v-1454zM455 1593h-295v281h295v-281z" />
<glyph unicode="&#x131;" d="M438 0h-327v1075h327v-1075z" />
<glyph unicode="&#x132;" horiz-adv-x="1634" d="M475 0h-336v1454h336v-1454zM631 68l74 274q29 -21 96.5 -43.5t144.5 -22.5q61 0 102 17.5t66.5 48t39 88t18 121.5t4.5 164v739h335v-739q0 -104 -5 -181t-19 -158t-39.5 -138t-67.5 -109t-101.5 -83.5t-143 -50t-189.5 -18.5q-182 0 -315 91z" />
<glyph unicode="&#x133;" horiz-adv-x="1099" d="M438 0h-327v1075h327v-1075zM438 1198h-327v297h327v-297zM592 -414q-169 0 -287 103l137 223q40 -43 109 -43q48 0 78 31t30 82v1093h328v-1069q0 -185 -112 -302.5t-283 -117.5zM987 1198h-328v297h328v-297z" />
<glyph unicode="&#x134;" horiz-adv-x="1019" d="M559 1579l-168 74l225 221h236l223 -221l-168 -74l-174 129zM16 68l74 274q29 -21 97 -43.5t145 -22.5q51 0 87.5 10.5t62 36t41 58t24 86t11.5 109.5t3 139v739h336v-739q0 -104 -5 -181t-19 -158t-39.5 -138t-67.5 -109t-101.5 -83.5t-143 -50t-189.5 -18.5 q-183 0 -316 91z" />
<glyph unicode="&#x135;" d="M43 -414q-169 0 -287 103l138 223q40 -43 108 -43q48 0 78.5 31t30.5 82v1093h327v-1069q0 -185 -112 -302.5t-283 -117.5zM100 1200l-168 74l226 221h235l223 -221l-167 -74l-175 129z" />
<glyph unicode="&#x136;" horiz-adv-x="1386" d="M524 -412v129q78 0 78 56v131h266v-144q0 -46 -18 -78t-46 -50t-75.5 -28t-93 -13t-111.5 -3zM475 0h-336v1454h336v-655l561 655h348l-544 -649l581 -805h-354l-426 616l-166 -180v-436z" />
<glyph unicode="&#x137;" horiz-adv-x="1163" d="M387 -412v129q78 0 78 56v131h266v-144q0 -46 -18 -78t-46 -50t-75.5 -28t-93 -13t-111.5 -3zM1182 0h-348l-281 432l-115 -119v-313h-327v1495h327v-866l365 446h348l-387 -463z" />
<glyph unicode="&#x138;" horiz-adv-x="1163" d="M1182 0h-348l-281 432l-115 -119v-313h-327v1075h327v-446l365 446h348l-387 -463z" />
<glyph unicode="&#x139;" horiz-adv-x="1206" d="M1034 1874l-194 -324l-209 58l106 266h297zM1180 0h-1041v1454h336v-1159h705v-295z" />
<glyph unicode="&#x13a;" horiz-adv-x="694" d="M557 1884l-195 -323l-208 57l106 266h297zM109 268v1227h327v-1094q0 -122 107 -122q48 0 106 28l43 -264q-61 -28 -141 -44.5t-148 -16.5q-141 0 -217.5 74t-76.5 212z" />
<glyph unicode="&#x13b;" horiz-adv-x="1206" d="M475 -412v129q78 0 78 56v131h266v-144q0 -46 -18 -78t-46 -50t-75.5 -28t-93 -13t-111.5 -3zM1180 0h-1041v1454h336v-1159h705v-295z" />
<glyph unicode="&#x13c;" horiz-adv-x="694" d="M186 -412v129q78 0 78 56v131h266v-144q0 -46 -18 -78t-46 -50t-75.5 -28t-93 -13t-111.5 -3zM109 268v1227h327v-1094q0 -122 107 -122q48 0 106 28l43 -264q-61 -28 -141 -44.5t-148 -16.5q-141 0 -217.5 74t-76.5 212z" />
<glyph unicode="&#x13d;" horiz-adv-x="1206" d="M1065 1493l-195 -324l-208 58l106 266h297zM1180 0h-1041v1454h336v-1159h705v-295z" />
<glyph unicode="&#x13e;" horiz-adv-x="694" d="M915 1493l-194 -324l-209 58l106 266h297zM109 268v1227h327v-1094q0 -122 107 -122q48 0 106 28l43 -264q-61 -28 -141 -44.5t-148 -16.5q-141 0 -217.5 74t-76.5 212z" />
<glyph unicode="&#x13f;" horiz-adv-x="1206" d="M1180 0h-1041v1454h336v-1159h705v-295zM1014 666h-266v340h266v-340z" />
<glyph unicode="&#x140;" horiz-adv-x="876" d="M109 268v1227h327v-1094q0 -122 107 -122q48 0 106 28l43 -264q-61 -28 -141 -44.5t-148 -16.5q-141 0 -217.5 74t-76.5 212zM844 594h-266v340h266v-340z" />
<glyph unicode="&#x141;" horiz-adv-x="1226" d="M1202 0h-1040v561l-103 -57l-77 176l180 100v674h336v-483l188 106l78 -176l-266 -151v-455h704v-295z" />
<glyph unicode="&#x142;" horiz-adv-x="751" d="M158 268v318l-97 -51l-77 176l174 94v690h327v-512l172 94l78 -176l-250 -137v-363q0 -122 107 -122q48 0 106 28l43 -264q-61 -28 -140.5 -44.5t-147.5 -16.5q-141 0 -218 74t-77 212z" />
<glyph unicode="&#x143;" horiz-adv-x="1554" d="M1063 1872l-195 -324l-209 58l107 266h297zM1145 0l-670 831v-831h-336v1454h262l678 -854v854h336v-1454h-270z" />
<glyph unicode="&#x144;" horiz-adv-x="1251" d="M950 1495l-194 -324l-209 58l106 266h297zM1149 688v-688h-328v604q0 102 -39 152.5t-106 50.5q-69 0 -139 -55t-99 -136v-616h-327v1075h295v-180q60 96 169 148.5t248 52.5q326 0 326 -408z" />
<glyph unicode="&#x145;" horiz-adv-x="1554" d="M559 -412v129q78 0 78 56v131h266v-144q0 -46 -18 -78t-46 -50t-75.5 -28t-93 -13t-111.5 -3zM1145 0l-670 831v-831h-336v1454h262l678 -854v854h336v-1454h-270z" />
<glyph unicode="&#x146;" horiz-adv-x="1251" d="M412 -412v129q77 0 77 56v131h267v-144q0 -46 -18 -78t-46 -50t-75.5 -28t-93 -13t-111.5 -3zM1149 688v-688h-328v604q0 102 -39 152.5t-106 50.5q-69 0 -139 -55t-99 -136v-616h-327v1075h295v-180q60 96 169 148.5t248 52.5q326 0 326 -408z" />
<glyph unicode="&#x147;" horiz-adv-x="1554" d="M432 1796l168 76l174 -129l174 129l168 -76l-223 -219h-236zM1145 0l-670 831v-831h-336v1454h262l678 -854v854h336v-1454h-270z" />
<glyph unicode="&#x148;" horiz-adv-x="1251" d="M319 1419l168 76l175 -129l174 129l168 -76l-224 -219h-235zM1149 688v-688h-328v604q0 102 -39 152.5t-106 50.5q-69 0 -139 -55t-99 -136v-616h-327v1075h295v-180q60 96 169 148.5t248 52.5q326 0 326 -408z" />
<glyph unicode="&#x149;" horiz-adv-x="1251" d="M338 1495l-197 -324l-209 58l68 164l-16 102h354zM1149 688v-688h-328v604q0 102 -39 152.5t-106 50.5q-69 0 -139 -55t-99 -136v-616h-327v1075h295v-180q60 96 169 148.5t248 52.5q326 0 326 -408z" />
<glyph unicode="&#x14a;" horiz-adv-x="1519" d="M1053 72l-578 749v-821h-336v1454h258l647 -838v836h336v-1456q0 -182 -113.5 -296t-281.5 -114q-169 0 -287 103l138 223q40 -43 108 -43q47 0 78 31.5t31 81.5v90z" />
<glyph unicode="&#x14b;" horiz-adv-x="1249" d="M752 -414q-169 0 -287 103l137 223q40 -43 109 -43q47 0 78.5 31.5t31.5 81.5v622q0 102 -39 152.5t-106 50.5q-69 0 -139 -55t-99 -136v-616h-327v1075h295v-180q60 96 169 148.5t248 52.5q324 0 324 -408v-682q0 -184 -113 -302t-282 -118z" />
<glyph unicode="&#x14c;" horiz-adv-x="1503" d="M1069 1651h-623v198h623v-198zM750 -12q-151 0 -282.5 63t-220 167t-139.5 237.5t-51 273.5q0 143 53 276.5t144.5 234.5t223 161.5t278.5 60.5q121 0 231 -41t192.5 -113t143 -165.5t92 -201.5t31.5 -218q0 -142 -52.5 -276t-143.5 -235.5t-222 -162.5t-278 -61z M399 725q0 -114 40 -212.5t122.5 -162t192.5 -63.5q68 0 125.5 25t98.5 68t69.5 99.5t42.5 120t14 129.5q0 115 -40 212.5t-122 159.5t-190 62q-84 0 -153 -37.5t-111.5 -99.5t-65.5 -139.5t-23 -161.5z" />
<glyph unicode="&#x14d;" horiz-adv-x="1247" d="M938 1272h-623v198h623v-198zM625 -20q-134 0 -244.5 45.5t-182 122.5t-110.5 177.5t-39 211.5q0 112 39 212.5t110.5 178t182 123t244.5 45.5q133 0 243 -45.5t182 -123t111 -178t39 -212.5q0 -111 -39 -211.5t-110.5 -177.5t-181.5 -122.5t-244 -45.5zM385 537 q0 -125 68 -203t172 -78q102 0 169.5 79t67.5 202q0 125 -67 202.5t-170 77.5t-171.5 -78.5t-68.5 -201.5z" />
<glyph unicode="&#x14e;" horiz-adv-x="1503" d="M750 -12q-151 0 -282.5 63t-220 167t-139.5 237.5t-51 273.5q0 143 53 276.5t144.5 234.5t223 161.5t278.5 60.5q121 0 231 -41t192.5 -113t143 -165.5t92 -201.5t31.5 -218q0 -142 -52.5 -276t-143.5 -235.5t-222 -162.5t-278 -61zM399 725q0 -114 40 -212.5t122.5 -162 t192.5 -63.5q68 0 125.5 25t98.5 68t69.5 99.5t42.5 120t14 129.5q0 115 -40 212.5t-122 159.5t-190 62q-84 0 -153 -37.5t-111.5 -99.5t-65.5 -139.5t-23 -161.5zM756 1716q48 0 83.5 44.5t41.5 113.5h170q0 -132 -82.5 -216.5t-212.5 -84.5q-129 0 -212 84.5t-83 216.5 h174q0 -65 36 -111.5t85 -46.5z" />
<glyph unicode="&#x14f;" horiz-adv-x="1247" d="M625 -20q-134 0 -244.5 45.5t-182 122.5t-110.5 177.5t-39 211.5q0 112 39 212.5t110.5 178t182 123t244.5 45.5q133 0 243 -45.5t182 -123t111 -178t39 -212.5q0 -111 -39 -211.5t-110.5 -177.5t-181.5 -122.5t-244 -45.5zM385 537q0 -125 68 -203t172 -78 q102 0 169.5 79t67.5 202q0 125 -67 202.5t-170 77.5t-171.5 -78.5t-68.5 -201.5zM623 1337q48 0 83.5 44.5t41.5 113.5h170q0 -132 -82.5 -216.5t-212.5 -84.5q-129 0 -212 84.5t-83 216.5h174q0 -65 36 -111.5t85 -46.5z" />
<glyph unicode="&#x150;" horiz-adv-x="1503" d="M807 1876l-180 -324l-158 58l92 266h246zM1163 1876l-178 -324l-158 58l91 266h245zM750 -12q-151 0 -282.5 63t-220 167t-139.5 237.5t-51 273.5q0 143 53 276.5t144.5 234.5t223 161.5t278.5 60.5q121 0 231 -41t192.5 -113t143 -165.5t92 -201.5t31.5 -218 q0 -142 -52.5 -276t-143.5 -235.5t-222 -162.5t-278 -61zM399 725q0 -114 40 -212.5t122.5 -162t192.5 -63.5q68 0 125.5 25t98.5 68t69.5 99.5t42.5 120t14 129.5q0 115 -40 212.5t-122 159.5t-190 62q-84 0 -153 -37.5t-111.5 -99.5t-65.5 -139.5t-23 -161.5z" />
<glyph unicode="&#x151;" horiz-adv-x="1247" d="M674 1497l-180 -323l-158 57l92 266h246zM1030 1497l-178 -323l-158 57l90 266h246zM625 -20q-134 0 -244.5 45.5t-182 122.5t-110.5 177.5t-39 211.5q0 112 39 212.5t110.5 178t182 123t244.5 45.5q133 0 243 -45.5t182 -123t111 -178t39 -212.5q0 -111 -39 -211.5 t-110.5 -177.5t-181.5 -122.5t-244 -45.5zM385 537q0 -125 68 -203t172 -78q102 0 169.5 79t67.5 202q0 125 -67 202.5t-170 77.5t-171.5 -78.5t-68.5 -201.5z" />
<glyph unicode="&#x152;" horiz-adv-x="2174" d="M1456 295h651v-295h-989v154q-72 -76 -167 -120t-201 -44q-151 0 -282.5 63t-220 166t-139.5 236.5t-51 273.5q0 143 53 277t144.5 235t223 162t278.5 61q208 0 362 -161v151h971v-295h-633v-272h522v-293h-522v-299zM754 289q68 0 125.5 24.5t98.5 67t69.5 99 t42.5 119.5t14 130q0 115 -40 213t-122 160.5t-190 62.5q-68 0 -126 -24.5t-99 -67t-70.5 -99t-43.5 -120t-14 -129.5q0 -114 40 -212t122.5 -161t192.5 -63z" />
<glyph unicode="&#x153;" horiz-adv-x="2054" d="M621 -20q-249 0 -410.5 157t-161.5 400t161 401t408 158q255 0 412 -217q87 111 187.5 164t228.5 53q247 0 405.5 -156.5t163.5 -402.5q0 -47 -8 -101h-795q8 -97 78.5 -162t169.5 -65q77 0 143 38.5t89 96.5l268 -78q-66 -132 -203.5 -209t-306.5 -77q-118 0 -216.5 49 t-203.5 155q-102 -108 -197 -156t-212 -48zM625 256q104 0 170.5 79t66.5 202t-66.5 201.5t-170.5 78.5q-105 0 -172.5 -78.5t-67.5 -201.5q0 -124 67.5 -202.5t172.5 -78.5zM1202 635h473q-10 101 -76.5 163t-162.5 62t-160.5 -62.5t-73.5 -162.5z" />
<glyph unicode="&#x154;" horiz-adv-x="1392" d="M942 1872l-194 -324l-209 58l106 266h297zM475 0h-336v1454h656q132 0 243 -72.5t171.5 -185t60.5 -233.5q0 -133 -64.5 -247.5t-173.5 -174.5l334 -541h-379l-293 469h-219v-469zM475 1159v-397h307q61 0 103.5 57t42.5 144q0 85 -48 140.5t-108 55.5h-297z" />
<glyph unicode="&#x155;" horiz-adv-x="821" d="M788 1495l-194 -324l-209 58l107 266h296zM793 1090v-295q-122 -2 -217 -40t-138 -110v-645h-327v1075h301v-217q57 107 144 169t185 65q42 0 52 -2z" />
<glyph unicode="&#x156;" horiz-adv-x="1392" d="M498 -412v129q77 0 77 56v131h267v-144q0 -46 -18 -78t-46 -50t-75.5 -28t-93 -13t-111.5 -3zM475 0h-336v1454h656q132 0 243 -72.5t171.5 -185t60.5 -233.5q0 -133 -64.5 -247.5t-173.5 -174.5l334 -541h-379l-293 469h-219v-469zM475 1159v-397h307q61 0 103.5 57 t42.5 144q0 85 -48 140.5t-108 55.5h-297z" />
<glyph unicode="&#x157;" horiz-adv-x="821" d="M49 -412v129q78 0 78 56v131h266v-144q0 -46 -18 -78t-46 -50t-75.5 -28t-93 -13t-111.5 -3zM793 1090v-295q-122 -2 -217 -40t-138 -110v-645h-327v1075h301v-217q57 107 144 169t185 65q42 0 52 -2z" />
<glyph unicode="&#x158;" horiz-adv-x="1392" d="M311 1796l168 76l174 -129l174 129l168 -76l-223 -219h-235zM475 0h-336v1454h656q132 0 243 -72.5t171.5 -185t60.5 -233.5q0 -133 -64.5 -247.5t-173.5 -174.5l334 -541h-379l-293 469h-219v-469zM475 1159v-397h307q61 0 103.5 57t42.5 144q0 85 -48 140.5t-108 55.5 h-297z" />
<glyph unicode="&#x159;" horiz-adv-x="821" d="M158 1419l168 76l174 -129l174 129l168 -76l-224 -219h-235zM793 1090v-295q-122 -2 -217 -40t-138 -110v-645h-327v1075h301v-217q57 107 144 169t185 65q42 0 52 -2z" />
<glyph unicode="&#x15a;" horiz-adv-x="1261" d="M952 1882l-194 -323l-209 57l106 266h297zM1159 1307l-145 -279q-26 30 -151 84.5t-238 54.5q-179 0 -179 -120q0 -66 77 -105q50 -26 218 -71l1 -1h1h1l1 -1h1h1h1l1 -1h1q90 -25 155 -49.5t124.5 -60.5t96 -80.5t57.5 -107.5t21 -142q0 -96 -30 -172.5t-81 -126.5 t-122 -83.5t-149 -47.5t-165 -14q-161 0 -326.5 48t-293.5 132l147 293q18 -20 84.5 -57t180.5 -75t215 -38q178 0 178 108q0 18 -5 33.5t-16.5 28.5t-24 23.5t-35 21.5t-40.5 18.5t-49.5 17.5t-53.5 17t-61.5 18t-64.5 19q-209 64 -301.5 153t-92.5 248q0 112 43 203 t116.5 149t170.5 89.5t207 31.5q258 0 524 -159z" />
<glyph unicode="&#x15b;" horiz-adv-x="1058" d="M811 1495l-195 -324l-208 58l106 266h297zM561 -20q-135 0 -286 38t-250 99l129 221q218 -127 399 -127q71 0 109 22.5t38 65.5q0 41 -47 65t-180 58q-223 58 -308 123t-85 186q0 163 125 264t319 101q223 0 461 -127l-129 -207q-191 106 -332 106q-64 0 -102.5 -23 t-38.5 -67q0 -43 41 -65t162 -51q242 -61 336 -132t94 -202q0 -160 -123 -254t-332 -94z" />
<glyph unicode="&#x15c;" horiz-adv-x="1261" d="M489 1587l-167 74l225 221h235l224 -221l-168 -74l-174 129zM1159 1307l-145 -279q-26 30 -151 84.5t-238 54.5q-179 0 -179 -120q0 -66 77 -105q50 -26 218 -71l1 -1h1h1l1 -1h1h1h1l1 -1h1q90 -25 155 -49.5t124.5 -60.5t96 -80.5t57.5 -107.5t21 -142 q0 -96 -30 -172.5t-81 -126.5t-122 -83.5t-149 -47.5t-165 -14q-161 0 -326.5 48t-293.5 132l147 293q18 -20 84.5 -57t180.5 -75t215 -38q178 0 178 108q0 18 -5 33.5t-16.5 28.5t-24 23.5t-35 21.5t-40.5 18.5t-49.5 17.5t-53.5 17t-61.5 18t-64.5 19q-209 64 -301.5 153 t-92.5 248q0 112 43 203t116.5 149t170.5 89.5t207 31.5q258 0 524 -159z" />
<glyph unicode="&#x15d;" horiz-adv-x="1058" d="M350 1200l-168 74l226 221h235l223 -221l-168 -74l-174 129zM561 -20q-135 0 -286 38t-250 99l129 221q218 -127 399 -127q71 0 109 22.5t38 65.5q0 41 -47 65t-180 58q-223 58 -308 123t-85 186q0 163 125 264t319 101q223 0 461 -127l-129 -207q-191 106 -332 106 q-64 0 -102.5 -23t-38.5 -67q0 -43 41 -65t162 -51q242 -61 336 -132t94 -202q0 -160 -123 -254t-332 -94z" />
<glyph unicode="&#x15e;" horiz-adv-x="1261" d="M422 -375l61 115q26 -15 79.5 -28t105.5 -13q114 0 114 65q0 66 -110 66q-73 0 -162 -23l86 179q-149 9 -296 55.5t-263 122.5l147 293q18 -20 84.5 -57t180.5 -75t215 -38q178 0 178 108q0 18 -5 33.5t-16.5 28.5t-24 23.5t-35 21.5t-40.5 18.5t-49.5 17.5t-53.5 17 t-61.5 18t-64.5 19q-209 64 -301.5 153t-92.5 248q0 112 43 203t116.5 149t170.5 89.5t207 31.5q258 0 524 -159l-145 -279q-26 30 -151 84.5t-238 54.5q-179 0 -179 -120q0 -66 77 -105q50 -26 218 -71l1 -1h1h1l1 -1h1h1h1l1 -1h1q90 -25 155 -49.5t124.5 -60.5t96 -80.5 t57.5 -107.5t21 -142q0 -88 -25.5 -159.5t-69 -121t-104.5 -84.5t-129.5 -53t-146.5 -24l-43 -64q27 6 62 6q80 0 132 -38t52 -113q0 -86 -73.5 -140.5t-213.5 -54.5q-124 0 -223 43z" />
<glyph unicode="&#x15f;" horiz-adv-x="1060" d="M334 -375l61 115q26 -15 79.5 -28t105.5 -13q114 0 114 65q0 66 -110 66q-73 0 -162 -23l84 175q-127 6 -260 43t-221 92l129 221q218 -127 399 -127q71 0 109 22.5t38 65.5q0 41 -47 65t-180 58q-223 58 -308 123t-85 186q0 163 125 264t319 101q223 0 461 -127 l-129 -207q-191 106 -332 106q-64 0 -102.5 -23t-38.5 -67q0 -43 41 -65t162 -51q242 -61 336 -132t94 -202q0 -144 -100.5 -235.5t-276.5 -108.5l-41 -62q27 6 61 6q80 0 132.5 -38t52.5 -113q0 -86 -73.5 -140.5t-213.5 -54.5q-124 0 -223 43z" />
<glyph unicode="&#x160;" horiz-adv-x="1261" d="M322 1806l167 76l175 -129l174 129l168 -76l-224 -219h-235zM1159 1307l-145 -279q-26 30 -151 84.5t-238 54.5q-179 0 -179 -120q0 -66 77 -105q50 -26 218 -71l1 -1h1h1l1 -1h1h1h1l1 -1h1q90 -25 155 -49.5t124.5 -60.5t96 -80.5t57.5 -107.5t21 -142 q0 -96 -30 -172.5t-81 -126.5t-122 -83.5t-149 -47.5t-165 -14q-161 0 -326.5 48t-293.5 132l147 293q18 -20 84.5 -57t180.5 -75t215 -38q178 0 178 108q0 18 -5 33.5t-16.5 28.5t-24 23.5t-35 21.5t-40.5 18.5t-49.5 17.5t-53.5 17t-61.5 18t-64.5 19q-209 64 -301.5 153 t-92.5 248q0 112 43 203t116.5 149t170.5 89.5t207 31.5q258 0 524 -159z" />
<glyph unicode="&#x161;" horiz-adv-x="1058" d="M182 1419l168 76l174 -129l174 129l168 -76l-223 -219h-235zM561 -20q-135 0 -286 38t-250 99l129 221q218 -127 399 -127q71 0 109 22.5t38 65.5q0 41 -47 65t-180 58q-223 58 -308 123t-85 186q0 163 125 264t319 101q223 0 461 -127l-129 -207q-191 106 -332 106 q-64 0 -102.5 -23t-38.5 -67q0 -43 41 -65t162 -51q242 -61 336 -132t94 -202q0 -160 -123 -254t-332 -94z" />
<glyph unicode="&#x162;" horiz-adv-x="1273" d="M422 -375l61 115q26 -15 79.5 -28t105.5 -13q114 0 114 65q0 66 -110 66q-73 0 -162 -23l94 193h-135v1159h-444v295h1222v-295h-442v-1159h-66l-53 -78q27 6 62 6q80 0 132 -38t52 -113q0 -86 -73.5 -140.5t-213.5 -54.5q-124 0 -223 43z" />
<glyph unicode="&#x163;" horiz-adv-x="823" d="M252 -375l61 115q26 -15 79.5 -28t105.5 -13q114 0 114 65q0 66 -110 66q-73 0 -162 -23l86 177q-111 13 -178.5 81.5t-67.5 200.5v561h-137v248h137v342h328v-342h219v-248h-219v-448q0 -51 26 -75.5t70 -24.5q57 0 144 38l61 -260q-122 -54 -250 -71l-43 -64q27 6 62 6 q80 0 132 -38t52 -113q0 -86 -73.5 -140.5t-213.5 -54.5q-124 0 -223 43z" />
<glyph unicode="&#x164;" horiz-adv-x="1273" d="M307 1798l168 76l174 -129l174 129l168 -76l-223 -219h-236zM1247 1454v-295h-442v-1159h-336v1159h-444v295h1222z" />
<glyph unicode="&#x165;" horiz-adv-x="821" d="M989 1495l-194 -324l-209 58l106 266h297zM745 317l62 -260q-178 -77 -330 -77q-133 0 -216 69.5t-83 216.5v561h-137v248h137v342h328v-342h219v-248h-219v-448q0 -51 26 -75.5t70 -24.5q56 0 143 38z" />
<glyph unicode="&#x166;" horiz-adv-x="1329" d="M1274 1454v-295h-443v-405h367v-156h-367v-598h-335v598h-365v156h365v405h-445v295h1223z" />
<glyph unicode="&#x167;" horiz-adv-x="823" d="M748 317l61 -260q-178 -77 -330 -77q-133 0 -216 69.5t-83 216.5v240h-137v190h137v131h-137v248h137v342h328v-342h219v-248h-219v-131h219v-190h-219v-127q0 -51 26 -75.5t70 -24.5q57 0 144 38z" />
<glyph unicode="&#x168;" horiz-adv-x="1525" d="M762 287q83 0 145 35.5t96.5 97t51 134t16.5 157.5v743h336v-743q0 -154 -38.5 -283t-115 -228.5t-202 -155.5t-289.5 -56q-136 0 -245.5 39t-183 105.5t-123 159.5t-71.5 197.5t-22 221.5v743h336v-743q0 -87 17 -160.5t52 -134t96.5 -95t143.5 -34.5zM893 1583 q-53 0 -101.5 23.5t-91 47t-79.5 23.5q-25 0 -44.5 -10t-29 -22.5t-15 -28.5t-7 -24.5t-1.5 -12.5h-176q0 21 8 54t28 75t48.5 77.5t74.5 60t101 24.5q43 0 83.5 -15.5t65.5 -33.5t58.5 -33.5t65.5 -15.5q26 0 46.5 10t31.5 24t17.5 30t8.5 25t2 13h176q0 -12 -6.5 -36.5 t-19 -58t-34.5 -67.5t-50.5 -63t-70 -47.5t-89.5 -18.5z" />
<glyph unicode="&#x169;" horiz-adv-x="1296" d="M438 -20q-163 0 -249.5 104t-86.5 303v688h328v-616q0 -98 39 -150.5t111 -52.5q148 0 235 156v663h328v-706q0 -49 18.5 -69.5t65.5 -23.5v-276q-91 -16 -156 -16q-172 3 -199 137l-6 65q-143 -206 -428 -206zM754 1204q-42 0 -82.5 14.5t-66.5 32.5t-60 32.5t-64 14.5 q-25 0 -44 -10t-28.5 -22.5t-15.5 -28.5t-7 -24.5t-1 -12.5h-176q0 21 8 54t28 75t48.5 77.5t74.5 60t101 24.5q43 0 83 -15.5t65.5 -33.5t58.5 -33.5t65 -15.5q26 0 47 10t31.5 24t17.5 30t9 25t2 13h176q0 -12 -6.5 -36.5t-19 -58t-34.5 -67.5t-50.5 -63t-70 -47.5 t-89.5 -18.5z" />
<glyph unicode="&#x16a;" horiz-adv-x="1525" d="M762 287q83 0 145 35.5t96.5 97t51 134t16.5 157.5v743h336v-743q0 -154 -38.5 -283t-115 -228.5t-202 -155.5t-289.5 -56q-136 0 -245.5 39t-183 105.5t-123 159.5t-71.5 197.5t-22 221.5v743h336v-743q0 -87 17 -160.5t52 -134t96.5 -95t143.5 -34.5zM1075 1651h-622 v198h622v-198z" />
<glyph unicode="&#x16b;" horiz-adv-x="1296" d="M438 -20q-163 0 -249.5 104t-86.5 303v688h328v-616q0 -98 39 -150.5t111 -52.5q148 0 235 156v663h328v-706q0 -49 18.5 -69.5t65.5 -23.5v-276q-91 -16 -156 -16q-172 3 -199 137l-6 65q-143 -206 -428 -206zM936 1272h-623v198h623v-198z" />
<glyph unicode="&#x16c;" horiz-adv-x="1525" d="M762 287q83 0 145 35.5t96.5 97t51 134t16.5 157.5v743h336v-743q0 -154 -38.5 -283t-115 -228.5t-202 -155.5t-289.5 -56q-136 0 -245.5 39t-183 105.5t-123 159.5t-71.5 197.5t-22 221.5v743h336v-743q0 -87 17 -160.5t52 -134t96.5 -95t143.5 -34.5zM762 1716 q48 0 83.5 44.5t41.5 113.5h170q0 -132 -82.5 -216.5t-212.5 -84.5q-129 0 -212 84.5t-83 216.5h174q0 -65 36 -111.5t85 -46.5z" />
<glyph unicode="&#x16d;" horiz-adv-x="1296" d="M438 -20q-163 0 -249.5 104t-86.5 303v688h328v-616q0 -98 39 -150.5t111 -52.5q148 0 235 156v663h328v-706q0 -49 18.5 -69.5t65.5 -23.5v-276q-91 -16 -156 -16q-172 3 -199 137l-6 65q-143 -206 -428 -206zM623 1337q48 0 83.5 44.5t41.5 113.5h170 q0 -132 -82.5 -216.5t-212.5 -84.5q-129 0 -212 84.5t-83 216.5h174q0 -65 36 -111.5t85 -46.5z" />
<glyph unicode="&#x16e;" horiz-adv-x="1525" d="M543 1706q0 81 59 124.5t160 43.5t159 -43t58 -125q0 -80 -58.5 -123t-158.5 -43q-101 0 -160 43t-59 123zM762 1778q-35 0 -58.5 -19.5t-23.5 -50.5t23.5 -51.5t58.5 -20.5q33 0 57.5 20.5t24.5 51.5t-23.5 50.5t-58.5 19.5zM762 287q83 0 145 35.5t96.5 97t51 134 t16.5 157.5v743h336v-743q0 -154 -38.5 -283t-115 -228.5t-202 -155.5t-289.5 -56q-136 0 -245.5 39t-183 105.5t-123 159.5t-71.5 197.5t-22 221.5v743h336v-743q0 -87 17 -160.5t52 -134t96.5 -95t143.5 -34.5z" />
<glyph unicode="&#x16f;" horiz-adv-x="1296" d="M403 1327q0 81 59.5 124.5t160.5 43.5t159 -43t58 -125q0 -80 -58.5 -123t-158.5 -43q-101 0 -160.5 43t-59.5 123zM623 1399q-35 0 -58.5 -19.5t-23.5 -50.5t23.5 -51.5t58.5 -20.5q33 0 57.5 20.5t24.5 51.5t-23.5 50.5t-58.5 19.5zM438 -20q-163 0 -249.5 104 t-86.5 303v688h328v-616q0 -98 39 -150.5t111 -52.5q148 0 235 156v663h328v-706q0 -49 18.5 -69.5t65.5 -23.5v-276q-91 -16 -156 -16q-172 3 -199 137l-6 65q-143 -206 -428 -206z" />
<glyph unicode="&#x170;" horiz-adv-x="1525" d="M762 287q83 0 145 35.5t96.5 97t51 134t16.5 157.5v743h336v-743q0 -154 -38.5 -283t-115 -228.5t-202 -155.5t-289.5 -56q-136 0 -245.5 39t-183 105.5t-123 159.5t-71.5 197.5t-22 221.5v743h336v-743q0 -87 17 -160.5t52 -134t96.5 -95t143.5 -34.5zM811 1876 l-180 -324l-158 58l92 266h246zM1167 1876l-178 -324l-158 58l91 266h245z" />
<glyph unicode="&#x171;" horiz-adv-x="1296" d="M438 -20q-163 0 -249.5 104t-86.5 303v688h328v-616q0 -98 39 -150.5t111 -52.5q148 0 235 156v663h328v-706q0 -49 18.5 -69.5t65.5 -23.5v-276q-91 -16 -156 -16q-172 3 -199 137l-6 65q-143 -206 -428 -206zM674 1497l-180 -323l-158 57l92 266h246zM1030 1497 l-178 -323l-158 57l90 266h246z" />
<glyph unicode="&#x172;" horiz-adv-x="1525" d="M762 287q83 0 145 35.5t96.5 97t51 134t16.5 157.5v743h336v-743q0 -147 -35 -272t-105.5 -223t-185 -157.5t-264.5 -68.5q-149 -91 -149 -172q0 -36 33.5 -57.5t99.5 -22.5l-64 -158q-117 17 -179 69t-62 122q0 120 163 223q-114 14 -205.5 59t-153.5 112t-104 155 t-60.5 185.5t-18.5 205.5v743h336v-743q0 -87 17 -160.5t52 -134t96.5 -95t143.5 -34.5z" />
<glyph unicode="&#x173;" horiz-adv-x="1296" d="M438 -20q-163 0 -249.5 104t-86.5 303v688h328v-616q0 -98 39 -150.5t111 -52.5q148 0 235 156v663h328v-706q0 -49 18.5 -69.5t65.5 -23.5v-276q-168 -98 -168 -182q0 -36 33.5 -57.5t99.5 -22.5l-64 -158q-117 17 -179 69t-62 122q0 114 149 215q-141 15 -164 135 l-6 65q-143 -206 -428 -206z" />
<glyph unicode="&#x174;" horiz-adv-x="2162" d="M905 1579l-168 74l226 221h235l223 -221l-168 -74l-174 129zM864 776l-241 676h311l145 -465l150 465h309l-244 -676l148 -391l366 1069h365l-580 -1454h-282l-230 569l-231 -569h-281l-579 1454h362l369 -1069z" />
<glyph unicode="&#x175;" horiz-adv-x="1753" d="M702 1200l-167 74l225 221h235l224 -221l-168 -74l-174 129zM1155 303l291 772h309l-444 -1075h-269l-165 442l-164 -442h-269l-444 1075h309l291 -772l100 293l-188 479h262l103 -323l104 323h262l-190 -479z" />
<glyph unicode="&#x176;" horiz-adv-x="1327" d="M-16 1454h364l314 -668l319 668h365l-517 -958v-496h-335v500zM487 1579l-168 74l226 221h235l224 -221l-168 -74l-174 129z" />
<glyph unicode="&#x177;" horiz-adv-x="1116" d="M106 -442v280q85 -26 150 -26q53 0 86.5 43t56.5 145l-407 1075h336l252 -794l215 794h305l-412 -1249q-44 -136 -152.5 -217t-248.5 -82q-101 0 -181 31zM406 1200l-168 74l225 221h235l224 -221l-168 -74l-174 129z" />
<glyph unicode="&#x178;" horiz-adv-x="1327" d="M-16 1454h364l314 -668l319 668h365l-517 -958v-496h-335v500zM582 1595h-271v265h271v-265zM1012 1595h-271v265h271v-265z" />
<glyph unicode="&#x179;" horiz-adv-x="1275" d="M948 1874l-194 -324l-209 58l106 266h297zM55 0v252l756 907h-727v295h1116v-252l-723 -907h731v-295h-1153z" />
<glyph unicode="&#x17a;" horiz-adv-x="1007" d="M791 1495l-195 -324l-209 58l107 266h297zM47 0v197l549 651h-520v227h864v-196l-547 -652h559v-227h-905z" />
<glyph unicode="&#x17b;" horiz-adv-x="1275" d="M55 0v252l756 907h-727v295h1116v-252l-723 -907h731v-295h-1153zM807 1593h-295v281h295v-281z" />
<glyph unicode="&#x17c;" horiz-adv-x="1007" d="M47 0v197l549 651h-520v227h864v-196l-547 -652h559v-227h-905zM651 1214h-295v281h295v-281z" />
<glyph unicode="&#x17d;" horiz-adv-x="1275" d="M317 1798l168 76l174 -129l175 129l167 -76l-223 -219h-235zM55 0v252l756 907h-727v295h1116v-252l-723 -907h731v-295h-1153z" />
<glyph unicode="&#x17e;" horiz-adv-x="1007" d="M160 1419l168 76l174 -129l174 129l168 -76l-223 -219h-236zM47 0v197l549 651h-520v227h864v-196l-547 -652h559v-227h-905z" />
<glyph unicode="&#x192;" horiz-adv-x="1140" d="M346 -414q-169 0 -287 103l138 223q40 -43 108 -43q47 0 78 31.5t31 81.5v720h-138v248h138v125q0 201 102.5 321t271.5 120q131 0 281 -64l-59 -246q-79 33 -148 33q-121 0 -121 -152v-137h250v-248h-250v-712q0 -178 -113.5 -291t-281.5 -113z" />
<glyph unicode="&#x1ea;" horiz-adv-x="1503" d="M725 -420q-117 17 -179.5 69t-62.5 122q0 120 164 225q-130 19 -242 88.5t-187.5 169t-118 223t-42.5 252.5q0 143 53 276.5t144.5 234.5t223 161.5t278.5 60.5q121 0 231 -41t192.5 -113t143 -165.5t92 -201.5t31.5 -218q0 -182 -81 -343.5t-228.5 -267t-329.5 -120.5 q-152 -94 -152 -174q0 -36 33.5 -57.5t99.5 -22.5zM399 725q0 -114 40 -212.5t122.5 -162t192.5 -63.5q68 0 125.5 25t98.5 68t69.5 99.5t42.5 120t14 129.5q0 115 -40 212.5t-122 159.5t-190 62q-84 0 -153 -37.5t-111.5 -99.5t-65.5 -139.5t-23 -161.5z" />
<glyph unicode="&#x1eb;" horiz-adv-x="1251" d="M676 -420q-117 17 -179.5 69t-62.5 122q0 112 144 211q-163 11 -284.5 90.5t-182 200.5t-60.5 264q0 112 39 212.5t110.5 178t182 123t244.5 45.5q133 0 243 -45.5t182 -123t111 -178t39 -212.5q0 -200 -117 -351.5t-323 -191.5q-156 -95 -156 -176q0 -36 33.5 -57.5 t99.5 -22.5zM387 537q0 -125 68 -203t172 -78q102 0 169.5 79t67.5 202q0 125 -67 202.5t-170 77.5t-171.5 -78.5t-68.5 -201.5z" />
<glyph unicode="&#x1fa;" horiz-adv-x="1378" d="M1006 1880l-156 -233q57 -42 57 -123q0 -79 -59 -125l536 -1399h-356l-113 326h-452l-111 -326h-356l536 1399q-61 42 -61 125q0 66 39.5 107t110.5 55l88 194h297zM858 557l-168 541l-174 -541h342zM690 1595q-36 0 -59 -19.5t-23 -49.5q0 -31 23.5 -51.5t58.5 -20.5 q33 0 57.5 20.5t24.5 51.5q0 30 -23 49.5t-59 19.5z" />
<glyph unicode="&#x1fb;" horiz-adv-x="1208" d="M418 -20q-160 0 -266.5 98t-106.5 244q0 158 129 258t332 100q144 0 242 -45v49q0 186 -216 186q-158 0 -335 -118l-97 204q215 140 465 140q244 0 377 -116t133 -335v-276q0 -49 18.5 -69.5t65.5 -23.5v-276q-81 -16 -158 -16q-172 3 -196 137l-6 49q-72 -92 -171 -141 t-210 -49zM514 215q52 0 103 18.5t83 49.5q48 38 48 77v103q-100 35 -187 35q-89 0 -148 -42t-59 -106q0 -58 45.5 -96.5t114.5 -38.5zM854 1862l-195 -324l-208 57l106 267h297zM346 1327q0 81 59 124.5t160 43.5t159 -43t58 -125q0 -80 -58.5 -123t-158.5 -43 q-101 0 -160 43t-59 123zM565 1399q-35 0 -58.5 -19.5t-23.5 -50.5t23.5 -51.5t58.5 -20.5q33 0 57.5 20.5t24.5 51.5t-23.5 50.5t-58.5 19.5z" />
<glyph unicode="&#x1fc;" horiz-adv-x="2000" d="M1528 1874l-195 -324l-209 58l107 266h297zM-37 0l895 1454h1057v-295h-635v-272h524v-293h-524v-299h653v-295h-987v326h-440l-187 -326h-356zM649 621h273v458z" />
<glyph unicode="&#x1fd;" horiz-adv-x="1925" d="M1229 1495l-195 -324l-209 58l107 266h297zM418 -20q-158 0 -264.5 98t-106.5 244q0 158 129 258t330 100q131 0 231 -41q0 2 3 28.5t5 32.5q-9 170 -213 170q-159 0 -333 -118l-99 204q218 140 465 140q246 0 377 -131q151 131 371 131q134 0 244 -45t181.5 -122.5 t110.5 -178t39 -213.5q0 -47 -8 -101h-801q7 -103 78 -162t168 -59q75 0 139.5 36t87.5 93l279 -78q-65 -130 -200 -208t-316 -78q-153 0 -273 57.5t-196 157.5q-48 -72 -123.5 -122.5t-152 -71.5t-152.5 -21zM514 215q53 0 103 18.5t83 49.5q47 37 50 75q-4 5 -6.5 28.5 t-4.5 50.5t-2 30q-91 31 -174 31q-91 0 -149 -41.5t-58 -106.5q0 -58 45 -96.5t113 -38.5zM1073 635h469q-9 101 -73.5 163t-161.5 62t-161 -62t-73 -163z" />
<glyph unicode="&#x1fe;" horiz-adv-x="1507" d="M1087 1454h363l-174 -244q83 -102 127.5 -229t44.5 -258q0 -142 -52.5 -276t-143.5 -235.5t-222 -162.5t-278 -61q-163 0 -295 69l-41 -57h-361l172 244q-80 102 -124 228t-44 257q0 143 53 276.5t144.5 234.5t223 161.5t278.5 60.5q155 0 289 -67zM1106 729 q0 103 -35 193l-436 -613q58 -22 121 -22q68 0 125.5 25t98.5 68t69.5 99.5t42.5 120t14 129.5zM401 725q0 -108 33 -193l432 611q-58 20 -112 20q-84 0 -153 -37.5t-111.5 -99.5t-65.5 -139.5t-23 -161.5zM1047 1874l-195 -324l-209 58l107 266h297z" />
<glyph unicode="&#x1ff;" horiz-adv-x="1247" d="M68 -10l133 153q-73 76 -112.5 178.5t-39.5 215.5q0 112 39 212.5t110.5 178t182 123t244.5 45.5q169 0 305 -76l55 65h180l-127 -147q78 -76 120 -180.5t42 -220.5q0 -111 -39 -211.5t-110.5 -177.5t-181.5 -122.5t-244 -45.5q-187 0 -318 81l-61 -71h-178zM911 1495 l-194 -324l-209 58l106 266h297zM625 256q102 0 169.5 79t67.5 202q0 90 -39 157l-325 -401q52 -37 127 -37zM385 537q0 -90 33 -152l323 399q-58 33 -116 33q-103 0 -171.5 -78.5t-68.5 -201.5z" />
<glyph unicode="&#x218;" horiz-adv-x="1261" d="M453 -412v129q77 0 77 56v131h267v-144q0 -46 -18 -78t-46 -50t-75.5 -28t-93 -13t-111.5 -3zM1159 1307l-145 -279q-26 30 -151 84.5t-238 54.5q-179 0 -179 -120q0 -66 77 -105q50 -26 218 -71l1 -1h1h1l1 -1h1h1h1l1 -1h1q90 -25 155 -49.5t124.5 -60.5t96 -80.5 t57.5 -107.5t21 -142q0 -96 -30 -172.5t-81 -126.5t-122 -83.5t-149 -47.5t-165 -14q-161 0 -326.5 48t-293.5 132l147 293q18 -20 84.5 -57t180.5 -75t215 -38q178 0 178 108q0 18 -5 33.5t-16.5 28.5t-24 23.5t-35 21.5t-40.5 18.5t-49.5 17.5t-53.5 17t-61.5 18t-64.5 19 q-209 64 -301.5 153t-92.5 248q0 112 43 203t116.5 149t170.5 89.5t207 31.5q258 0 524 -159z" />
<glyph unicode="&#x219;" horiz-adv-x="1058" d="M346 -412v129q78 0 78 56v131h266v-144q0 -46 -18 -78t-46 -50t-75.5 -28t-93 -13t-111.5 -3zM561 -20q-135 0 -286 38t-250 99l129 221q218 -127 399 -127q71 0 109 22.5t38 65.5q0 41 -47 65t-180 58q-223 58 -308 123t-85 186q0 163 125 264t319 101q223 0 461 -127 l-129 -207q-191 106 -332 106q-64 0 -102.5 -23t-38.5 -67q0 -43 41 -65t162 -51q242 -61 336 -132t94 -202q0 -160 -123 -254t-332 -94z" />
<glyph unicode="&#x21a;" horiz-adv-x="1273" d="M436 -412v129q78 0 78 56v131h266v-144q0 -46 -18 -78t-46 -50t-75.5 -28t-93 -13t-111.5 -3zM1247 1454v-295h-442v-1159h-336v1159h-444v295h1222z" />
<glyph unicode="&#x21b;" horiz-adv-x="821" d="M264 -412v129q78 0 78 56v131h266v-144q0 -46 -18 -78t-46 -50t-75.5 -28t-93 -13t-111.5 -3zM745 317l62 -260q-178 -77 -330 -77q-133 0 -216 69.5t-83 216.5v561h-137v248h137v342h328v-342h219v-248h-219v-448q0 -51 26 -75.5t70 -24.5q56 0 143 38z" />
<glyph unicode="&#x237;" d="M43 -414q-169 0 -287 103l138 223q40 -43 108 -43q48 0 78.5 31t30.5 82v1093h327v-1069q0 -185 -112 -302.5t-283 -117.5z" />
<glyph unicode="&#x259;" horiz-adv-x="1239" d="M614 -20q-133 0 -243 45t-181.5 122t-110.5 177.5t-40 212.5q0 48 8 102h795q-7 103 -76.5 161t-163.5 58q-74 0 -138 -36t-87 -93l-279 80q64 129 199 208t317 79q131 0 241 -44.5t182.5 -120.5t112.5 -175.5t40 -210.5q0 -116 -39 -218t-111 -179.5t-182 -122.5 t-244 -45zM621 215q94 0 156 61t73 162h-465q10 -101 76 -162t160 -61z" />
<glyph unicode="&#x2bc;" horiz-adv-x="778" d="M625 1495l-197 -324l-209 58l68 164l-17 102h355z" />
<glyph unicode="&#x2c6;" horiz-adv-x="786" d="M219 1200l-168 74l225 221h236l223 -221l-168 -74l-174 129z" />
<glyph unicode="&#x2c7;" horiz-adv-x="786" d="M51 1419l168 76l174 -129l174 129l168 -76l-223 -219h-236z" />
<glyph unicode="&#x2d8;" horiz-adv-x="710" d="M354 1337q48 0 83.5 44.5t41.5 113.5h170q0 -132 -82.5 -216.5t-212.5 -84.5q-129 0 -212 84.5t-83 216.5h174q0 -65 36 -111.5t85 -46.5z" />
<glyph unicode="&#x2d9;" horiz-adv-x="499" d="M397 1214h-295v281h295v-281z" />
<glyph unicode="&#x2da;" d="M55 1327q0 81 59 124.5t160 43.5t159.5 -43.5t58.5 -124.5q0 -80 -58.5 -123t-159.5 -43t-160 43t-59 123zM274 1399q-35 0 -58 -19.5t-23 -50.5t23 -51.5t58 -20.5q33 0 57.5 20.5t24.5 51.5t-23.5 50.5t-58.5 19.5z" />
<glyph unicode="&#x2db;" horiz-adv-x="632" d="M383 -418q-117 17 -179.5 69t-62.5 122q0 72 66 143.5t192 130.5l82 -45q-168 -98 -168 -182q0 -36 33.5 -57.5t99.5 -22.5z" />
<glyph unicode="&#x2dc;" horiz-adv-x="921" d="M598 1204q-53 0 -101.5 23.5t-91 47t-79.5 23.5q-25 0 -44.5 -10t-29 -22.5t-15 -28.5t-7 -24.5t-1.5 -12.5h-176q0 21 8 54t28 75t48.5 77.5t74.5 60t101 24.5q43 0 83.5 -15.5t65.5 -33.5t58.5 -33.5t65.5 -15.5q26 0 46.5 10t31.5 24t17.5 30t8.5 25t2 13h176 q0 -12 -6.5 -36.5t-19 -58t-34.5 -67.5t-50.5 -63t-70 -47.5t-89.5 -18.5z" />
<glyph unicode="&#x2dd;" horiz-adv-x="780" d="M397 1495l-180 -324l-158 58l93 266h245zM754 1495l-179 -324l-157 58l90 266h246z" />
<glyph unicode="&#x3bc;" horiz-adv-x="1310" d="M111 -436v1511h327v-616q0 -203 158 -203q63 0 123.5 38t105.5 118v663h328v-706q0 -49 18 -69.5t64 -23.5v-276q-88 -16 -156 -16q-172 3 -196 137l-9 65q-30 -69 -119 -137.5t-180 -68.5q-64 0 -105 33t-52 65l20 -514h-327z" />
<glyph unicode="&#x1e44;" horiz-adv-x="1554" d="M922 1591h-295v281h295v-281zM1145 0l-670 831v-831h-336v1454h262l678 -854v854h336v-1454h-270z" />
<glyph unicode="&#x1e45;" horiz-adv-x="1251" d="M811 1214h-295v281h295v-281zM1149 688v-688h-328v604q0 102 -39 152.5t-106 50.5q-69 0 -139 -55t-99 -136v-616h-327v1075h295v-180q60 96 169 148.5t248 52.5q326 0 326 -408z" />
<glyph unicode="&#x1e80;" horiz-adv-x="2162" d="M864 776l-241 676h311l145 -465l150 465h309l-244 -676l148 -391l366 1069h365l-580 -1454h-282l-230 569l-231 -569h-281l-579 1454h362l369 -1069zM987 1552l-196 324h296l107 -266z" />
<glyph unicode="&#x1e81;" horiz-adv-x="1753" d="M1155 303l291 772h309l-444 -1075h-269l-165 442l-164 -442h-269l-444 1075h309l291 -772l100 293l-188 479h262l103 -323l104 323h262l-190 -479zM784 1174l-196 323h297l106 -266z" />
<glyph unicode="&#x1e82;" horiz-adv-x="2162" d="M1368 1874l-194 -324l-209 58l106 266h297zM864 776l-241 676h311l145 -465l150 465h309l-244 -676l148 -391l366 1069h365l-580 -1454h-282l-230 569l-231 -569h-281l-579 1454h362l369 -1069z" />
<glyph unicode="&#x1e83;" horiz-adv-x="1753" d="M1165 1495l-194 -324l-209 58l106 266h297zM1155 303l291 772h309l-444 -1075h-269l-165 442l-164 -442h-269l-444 1075h309l291 -772l100 293l-188 479h262l103 -323l104 323h262l-190 -479z" />
<glyph unicode="&#x1e84;" horiz-adv-x="2162" d="M999 1595h-270v265h270v-265zM1430 1595h-271v265h271v-265zM864 776l-241 676h311l145 -465l150 465h309l-244 -676l148 -391l366 1069h365l-580 -1454h-282l-230 569l-231 -569h-281l-579 1454h362l369 -1069z" />
<glyph unicode="&#x1e85;" horiz-adv-x="1753" d="M797 1217h-271v264h271v-264zM1227 1217h-271v264h271v-264zM1155 303l291 772h309l-444 -1075h-269l-165 442l-164 -442h-269l-444 1075h309l291 -772l100 293l-188 479h262l103 -323l104 323h262l-190 -479z" />
<glyph unicode="&#x1ebc;" horiz-adv-x="1230" d="M475 295h686v-295h-1022v1454h1004v-295h-668v-282h574v-273h-574v-309zM788 1583q-53 0 -101.5 23.5t-91 47t-79.5 23.5q-25 0 -44 -10t-28.5 -22.5t-15.5 -28.5t-7 -24.5t-1 -12.5h-176q0 21 8 54t28 75t48.5 77.5t74.5 60t101 24.5q43 0 83 -15.5t65.5 -33.5 t58.5 -33.5t65 -15.5q26 0 47 10t31.5 24t17.5 30t9 25t2 13h176q0 -16 -8.5 -47t-29.5 -74t-50.5 -80.5t-77.5 -63.5t-105 -26z" />
<glyph unicode="&#x1ebd;" horiz-adv-x="1236" d="M627 -20q-132 0 -242.5 44.5t-183 119.5t-112.5 174t-40 208q0 116 39.5 219.5t111.5 181.5t182.5 123.5t244.5 45.5t244 -45.5t181 -122.5t109.5 -176.5t38.5 -210.5q0 -51 -8 -105h-795q7 -103 76.5 -162t163.5 -59q74 0 139 36t88 93l279 -78q-65 -130 -200 -208 t-316 -78zM391 639h463q-9 100 -73 160.5t-158 60.5q-95 0 -159 -60.5t-73 -160.5zM754 1204q-42 0 -82.5 14.5t-66.5 32.5t-60 32.5t-64 14.5q-25 0 -44 -10t-28.5 -22.5t-15.5 -28.5t-7 -24.5t-1 -12.5h-176q0 21 8 54t28 75t48.5 77.5t74.5 60t101 24.5q43 0 83 -15.5 t65.5 -33.5t58.5 -33.5t65 -15.5q26 0 47 10t31.5 24t17.5 30t9 25t2 13h176q0 -12 -6.5 -36.5t-19 -58t-34.5 -67.5t-50.5 -63t-70 -47.5t-89.5 -18.5z" />
<glyph unicode="&#x1ef2;" horiz-adv-x="1327" d="M-16 1454h364l314 -668l319 668h365l-517 -958v-496h-335v500zM569 1552l-196 324h297l106 -266z" />
<glyph unicode="&#x1ef3;" horiz-adv-x="1116" d="M106 -442v280q85 -26 150 -26q53 0 86.5 43t56.5 145l-407 1075h336l252 -794l215 794h305l-412 -1249q-44 -136 -152.5 -217t-248.5 -82q-101 0 -181 31zM487 1174l-196 323h297l106 -266z" />
<glyph unicode="&#x1ef8;" horiz-adv-x="1327" d="M-16 1454h364l314 -668l319 668h365l-517 -958v-496h-335v500zM791 1583q-42 0 -82.5 14.5t-66.5 32.5t-60 32.5t-64 14.5q-25 0 -44 -10t-28.5 -22.5t-15.5 -28.5t-7 -24.5t-1 -12.5h-176q0 21 8 54t28 75t48.5 77.5t74.5 60t101 24.5q43 0 83 -15.5t65.5 -33.5 t58.5 -33.5t65 -15.5q26 0 47 10t31.5 24t17.5 30t9 25t2 13h176q0 -12 -6.5 -36.5t-19 -58t-34.5 -67.5t-50.5 -63t-70 -47.5t-89.5 -18.5z" />
<glyph unicode="&#x1ef9;" horiz-adv-x="1116" d="M106 -442v280q85 -26 150 -26q53 0 86.5 43t56.5 145l-407 1075h336l252 -794l215 794h305l-412 -1249q-44 -136 -152.5 -217t-248.5 -82q-101 0 -181 31zM709 1204q-42 0 -82.5 14.5t-66.5 32.5t-60 32.5t-64 14.5q-25 0 -44 -10t-28.5 -22.5t-15.5 -28.5t-7 -24.5 t-1 -12.5h-176q0 21 8 54t28 75t48.5 77.5t74.5 60t101 24.5q43 0 83 -15.5t65.5 -33.5t58.5 -33.5t65 -15.5q26 0 47 10t31.5 24t17.5 30t9 25t2 13h176q0 -12 -6.5 -36.5t-19 -58t-34.5 -67.5t-50.5 -63t-70 -47.5t-89.5 -18.5z" />
<glyph unicode="&#x2000;" horiz-adv-x="942" />
<glyph unicode="&#x2001;" horiz-adv-x="1884" />
<glyph unicode="&#x2002;" horiz-adv-x="942" />
<glyph unicode="&#x2003;" horiz-adv-x="1884" />
<glyph unicode="&#x2004;" horiz-adv-x="628" />
<glyph unicode="&#x2005;" horiz-adv-x="471" />
<glyph unicode="&#x2006;" horiz-adv-x="314" />
<glyph unicode="&#x2007;" horiz-adv-x="314" />
<glyph unicode="&#x2008;" horiz-adv-x="235" />
<glyph unicode="&#x2009;" horiz-adv-x="376" />
<glyph unicode="&#x200a;" horiz-adv-x="104" />
<glyph unicode="&#x2010;" horiz-adv-x="849" d="M741 416h-630v295h630v-295z" />
<glyph unicode="&#x2011;" horiz-adv-x="849" d="M741 416h-630v295h630v-295z" />
<glyph unicode="&#x2012;" horiz-adv-x="849" d="M741 416h-630v295h630v-295z" />
<glyph unicode="&#x2013;" horiz-adv-x="1259" d="M1149 416h-1038v295h1038v-295z" />
<glyph unicode="&#x2014;" horiz-adv-x="1918" d="M1808 416h-1697v295h1697v-295z" />
<glyph unicode="&#x2018;" horiz-adv-x="532" d="M430 1206v-231q-60 0 -116 11.5t-109.5 37t-86 74.5t-32.5 116v281h266v-217q3 -41 29 -56.5t49 -15.5z" />
<glyph unicode="&#x2019;" horiz-adv-x="538" d="M84 1264v231q47 0 92 -6.5t91.5 -24t81.5 -43.5t57 -69t22 -97v-280h-266v217q-3 41 -29 56.5t-49 15.5z" />
<glyph unicode="&#x201a;" horiz-adv-x="509" d="M47 -270v231q13 0 28 4t31.5 21.5t18.5 46.5v301h266v-363q0 -55 -22 -98t-57 -69t-81.5 -43.5t-91.5 -24t-92 -6.5z" />
<glyph unicode="&#x201c;" horiz-adv-x="980" d="M430 1206v-231q-60 0 -116 11.5t-109.5 37t-86 74.5t-32.5 116v281h266v-217q3 -41 29 -56.5t49 -15.5zM879 1206v-231q-60 0 -116 11.5t-109.5 37t-86 74.5t-32.5 116v281h266v-217q3 -41 29 -56.5t49 -15.5z" />
<glyph unicode="&#x201d;" horiz-adv-x="987" d="M84 1264v231q47 0 92 -6.5t91.5 -24t81.5 -43.5t57 -69t22 -97v-280h-266v217q-3 41 -29 56.5t-49 15.5zM532 1264v231q47 0 92 -6.5t92 -24t82 -43.5t57 -69t22 -97v-280h-267v217q-3 41 -29 56.5t-49 15.5z" />
<glyph unicode="&#x201e;" horiz-adv-x="933" d="M47 -270v231q13 0 28 4t31.5 21.5t18.5 46.5v301h266v-363q0 -55 -22 -98t-57 -69t-81.5 -43.5t-91.5 -24t-92 -6.5zM473 -270v231q13 0 28 4t31.5 21.5t18.5 46.5v301h266v-363q0 -55 -22 -98t-57 -69t-81.5 -43.5t-91.5 -24t-92 -6.5z" />
<glyph unicode="&#x2020;" horiz-adv-x="995" d="M653 -266h-311v674h-270v294h270v885h311v-885h269v-294h-269v-674z" />
<glyph unicode="&#x2021;" horiz-adv-x="1017" d="M666 -266h-312v428h-270v295h270v229h-270v295h270v606h312v-606h268v-295h-268v-229h268v-295h-268v-428z" />
<glyph unicode="&#x2022;" horiz-adv-x="749" d="M600 719q0 -94 -65.5 -159.5t-159.5 -65.5q-93 0 -159 66t-66 159q0 92 66.5 158.5t158.5 66.5q93 0 159 -66t66 -159z" />
<glyph unicode="&#x2026;" horiz-adv-x="1345" d="M377 0h-266v334h266v-334zM807 0h-268v334h268v-334zM1235 0h-266v334h266v-334z" />
<glyph unicode="&#x202f;" horiz-adv-x="376" />
<glyph unicode="&#x2030;" horiz-adv-x="2482" d="M430 842q-146 0 -248 92.5t-102 224.5q0 131 102 223.5t248 92.5q147 0 248.5 -92.5t101.5 -223.5q0 -132 -101.5 -224.5t-248.5 -92.5zM430 1001q51 0 88 47t37 111t-37 110t-88 46t-87 -46.5t-36 -109.5q0 -64 36.5 -111t86.5 -47zM1262 -20q-146 0 -248.5 92 t-102.5 223q0 132 102.5 224.5t248.5 92.5q147 0 248.5 -92.5t101.5 -224.5q0 -131 -101.5 -223t-248.5 -92zM1262 139q51 0 87.5 46.5t36.5 109.5q0 65 -36.5 111.5t-87.5 46.5t-87 -46.5t-36 -111.5t36 -110.5t87 -45.5zM2066 -20q-147 0 -248.5 92t-101.5 223 q0 132 101.5 224.5t248.5 92.5t249 -92.5t102 -224.5q0 -131 -102 -223t-249 -92zM2066 139q51 0 87 46.5t36 109.5q0 64 -36.5 111t-86.5 47q-51 0 -86.5 -46.5t-35.5 -111.5t35.5 -110.5t86.5 -45.5zM367 -18l-146 133l578 663l524 695l147 -132l-559 -647z" />
<glyph unicode="&#x2039;" horiz-adv-x="733" d="M70 444v156l551 395v-264l-293 -201l293 -186v-264z" />
<glyph unicode="&#x203a;" horiz-adv-x="733" d="M664 600v-156l-553 -364v264l295 186l-295 201v264z" />
<glyph unicode="&#x2044;" horiz-adv-x="448" d="M-254 -18l-145 133l577 663l524 695l148 -132l-559 -647z" />
<glyph unicode="&#x205f;" horiz-adv-x="471" />
<glyph unicode="&#x2070;" horiz-adv-x="1021" d="M512 602q-107 0 -195.5 41.5t-143 108t-83.5 143.5t-29 154q0 81 32 160t88.5 143t143 103.5t187.5 39.5q86 0 160.5 -28t127 -73.5t90 -104t55.5 -120t18 -120.5q0 -81 -32 -160.5t-88.5 -143.5t-143 -103.5t-187.5 -39.5zM256 1049q0 -99 68 -177.5t188 -78.5 q63 0 114 24.5t80.5 64t44.5 82.5t15 85q0 62 -27.5 119t-87 97t-139.5 40q-64 0 -115 -24.5t-80.5 -63t-45 -82t-15.5 -86.5z" />
<glyph unicode="&#x2074;" horiz-adv-x="860" d="M678 616h-191v181h-446v186l506 514h131v-514h127v-186h-127v-181zM496 1266l-275 -283h275v283z" />
<glyph unicode="&#x2075;" horiz-adv-x="825" d="M430 1188q149 0 246.5 -79.5t97.5 -203.5q0 -133 -109.5 -218t-277.5 -85q-110 0 -201.5 39t-138.5 107l111 129q91 -91 239 -91q80 0 131.5 32t51.5 95q0 65 -50.5 99.5t-113.5 34.5q-50 0 -101.5 -26t-74.5 -65h-166q15 80 61 269t60 272h510v-190h-373l-43 -146 q61 27 141 27z" />
<glyph unicode="&#x2076;" horiz-adv-x="886" d="M829 901q0 -128 -110 -217.5t-273 -89.5q-176 0 -278 112t-102 312q0 225 108.5 351t298.5 126q203 0 315 -127l-108 -133q-34 37 -91.5 57.5t-123.5 20.5q-101 0 -160.5 -48t-62.5 -135q30 30 91.5 47t123.5 17q164 0 268 -83.5t104 -209.5zM451 770q81 0 139.5 39 t58.5 92q0 54 -58 90.5t-140 36.5q-84 0 -142.5 -36.5t-58.5 -90.5q0 -52 60.5 -91.5t140.5 -39.5z" />
<glyph unicode="&#x2077;" horiz-adv-x="817" d="M92 616l436 691h-481v190h780l-518 -881h-217z" />
<glyph unicode="&#x2078;" horiz-adv-x="880" d="M817 877q0 -118 -111.5 -196.5t-267.5 -78.5q-158 0 -267.5 80.5t-109.5 198.5q0 73 44.5 119.5t123.5 84.5q-60 24 -97.5 65.5t-37.5 100.5q0 69 52 126t130.5 87.5t161.5 30.5t162 -30t131.5 -87t52.5 -125q0 -57 -37 -100t-98 -68q168 -79 168 -208zM625 897 q0 45 -56.5 73.5t-130.5 28.5q-76 0 -130 -28.5t-54 -73.5t57 -74.5t129 -29.5q73 0 129 30t56 74zM285 1233q0 -35 46.5 -56.5t106.5 -21.5t108 21.5t48 56.5t-46 56.5t-110 21.5q-63 0 -108 -22t-45 -56z" />
<glyph unicode="&#x2079;" horiz-adv-x="886" d="M57 1186q0 131 109.5 220t273.5 89q176 0 278.5 -112.5t102.5 -311.5q0 -225 -107.5 -351t-297.5 -126q-96 0 -179.5 33.5t-138.5 95.5l109 131q34 -37 91.5 -58.5t123.5 -21.5q101 0 161.5 49t61.5 135q-29 -29 -91 -46t-126 -17q-162 0 -266.5 83t-104.5 208zM436 1319 q-80 0 -138 -39.5t-58 -93.5q0 -51 58 -88t140 -37t140.5 37t58.5 88q0 54 -59.5 93.5t-141.5 39.5z" />
<glyph unicode="&#x2080;" horiz-adv-x="1021" d="M512 -12q-107 0 -195.5 41.5t-143 107.5t-83.5 143t-29 154q0 81 32 160t88.5 143t143 104t187.5 40q86 0 160.5 -28t127 -74t90 -104.5t55.5 -120t18 -120.5q0 -81 -32 -160.5t-88.5 -143t-143 -103t-187.5 -39.5zM256 434q0 -99 68 -177.5t188 -78.5q63 0 114 24.5 t80.5 64t44.5 82.5t15 85q0 62 -27.5 119t-87 97t-139.5 40q-64 0 -115 -24.5t-80.5 -63t-45 -82t-15.5 -86.5z" />
<glyph unicode="&#x2081;" horiz-adv-x="716" d="M494 186h186v-186h-584v186h205v498q-29 -33 -105.5 -69.5t-132.5 -36.5v190q46 0 105 29.5t95 58t38 33.5h193v-703z" />
<glyph unicode="&#x2082;" horiz-adv-x="888" d="M813 0h-756q0 171 58.5 261.5t214.5 156.5q17 7 54.5 21.5t55.5 22.5t48 22t45 25.5t32 27t24 33.5t7 38q0 97 -164 97q-147 0 -248 -97l-121 142q43 56 149.5 98.5t250.5 42.5q168 0 258 -74t90 -211q0 -203 -262 -280q-176 -52 -176 -140h440v-186z" />
<glyph unicode="&#x2083;" horiz-adv-x="849" d="M395 -12q-130 0 -219.5 39t-122.5 116l103 144q13 -30 76.5 -68.5t160.5 -38.5q85 0 141 23t56 67q0 101 -303 101h-51v174h49q274 0 274 94q0 27 -26 45t-59.5 24.5t-70.5 6.5q-139 0 -229 -97l-121 156q48 56 144.5 87.5t203.5 31.5q155 0 259 -69.5t104 -172.5 q0 -71 -53 -119t-146 -63q99 -13 159 -77.5t60 -149.5q0 -86 -58 -145t-143 -84t-188 -25z" />
<glyph unicode="&#x2084;" horiz-adv-x="860" d="M678 2h-191v180h-446v187l506 514h131v-514h127v-187h-127v-180zM496 651l-275 -282h275v282z" />
<glyph unicode="&#x2085;" horiz-adv-x="825" d="M428 573q149 0 246.5 -79.5t97.5 -204.5q0 -132 -109.5 -216.5t-277.5 -84.5q-110 0 -201.5 38.5t-138.5 104.5l111 131q90 -90 239 -90q80 0 131.5 32t51.5 95q0 65 -50 99t-114 34q-51 0 -102 -25.5t-74 -64.5h-166q15 80 61 269t60 272h509v-191h-372l-43 -145 q59 26 141 26z" />
<glyph unicode="&#x2086;" horiz-adv-x="886" d="M829 295q0 -128 -110 -217.5t-273 -89.5q-176 0 -278 111.5t-102 312.5q0 225 108.5 351t298.5 126q96 0 178 -33t137 -94l-108 -133q-34 37 -91.5 57.5t-123.5 20.5q-101 0 -160.5 -48t-62.5 -135q30 30 91.5 47t123.5 17q164 0 268 -83.5t104 -209.5zM451 164 q82 0 140 38.5t58 92.5t-58 90.5t-140 36.5q-84 0 -142.5 -36.5t-58.5 -90.5t60.5 -92.5t140.5 -38.5z" />
<glyph unicode="&#x2087;" horiz-adv-x="819" d="M94 2l436 690h-481v191h778l-518 -881h-215z" />
<glyph unicode="&#x2088;" horiz-adv-x="880" d="M817 262q0 -118 -111 -196t-268 -78q-158 0 -267.5 80t-109.5 198q0 73 44.5 120t123.5 85q-60 24 -97.5 65.5t-37.5 100.5q0 69 52 126t130.5 87.5t161.5 30.5t162 -30t131.5 -87t52.5 -125q0 -57 -37 -100t-98 -68q168 -79 168 -209zM625 283q0 45 -56.5 73.5 t-130.5 28.5q-76 0 -130 -28.5t-54 -73.5t57.5 -75t128.5 -30q73 0 129 30.5t56 74.5zM285 618q0 -35 46.5 -56t106.5 -21t108 21t48 56q0 34 -46 56t-110 22q-63 0 -108 -22t-45 -56z" />
<glyph unicode="&#x2089;" horiz-adv-x="886" d="M57 580q0 130 110 219.5t273 89.5q176 0 278.5 -112.5t102.5 -313.5q0 -224 -107.5 -349.5t-297.5 -125.5q-96 0 -179.5 33t-138.5 94l109 133q34 -37 91.5 -58.5t123.5 -21.5q101 0 161.5 48.5t61.5 135.5q-29 -31 -91 -48t-126 -17q-162 0 -266.5 84t-104.5 209z M436 713q-80 0 -138 -39.5t-58 -93.5q0 -52 58 -88.5t140 -36.5t140.5 36.5t58.5 88.5q0 54 -59.5 93.5t-141.5 39.5z" />
<glyph unicode="&#x20ac;" horiz-adv-x="1579" d="M156 911h90q26 111 83.5 209t142 175t202 122t252.5 45q189 0 334.5 -86.5t216.5 -230.5l-258 -180q-21 55 -56.5 95.5t-77.5 62t-83 31t-84 9.5q-120 0 -202 -70t-120 -182h465l-72 -176h-422q0 -55 6 -98h426l-71 -176h-291q47 -81 120.5 -127.5t164.5 -46.5 q93 0 176.5 49.5t120.5 150.5l276 -161q-41 -103 -137 -182t-212 -117.5t-233 -38.5q-217 0 -386 133.5t-248 339.5h-209l71 176h90q-6 50 -6 98h-141z" />
<glyph unicode="&#x2122;" horiz-adv-x="1773" d="M721 1458v-209h-195v-415h-209v415h-194v209h598zM1225 1157l98 297h313v-620h-209v356l-116 -270h-170l-117 270v-356h-209v620h313z" />
<glyph unicode="&#x2153;" horiz-adv-x="2039" d="M1575 -12q-130 0 -219.5 39t-122.5 116l102 144q13 -30 77 -68.5t161 -38.5q85 0 140.5 23t55.5 67q0 101 -303 101h-51v174h49q275 0 275 94q0 27 -26 45t-59.5 24.5t-70.5 6.5q-139 0 -229 -97l-121 156q48 56 144.5 87.5t203.5 31.5q155 0 259 -69.5t104 -172.5 q0 -71 -53 -119t-146 -63q99 -13 159 -77.5t60 -149.5q0 -86 -58 -145t-143 -84t-188 -25zM473 797h141v-189h-493v189h158v497q-24 -33 -85.5 -69.5t-105.5 -36.5v190q37 0 85 30t75.5 56.5t30.5 32.5h194v-700zM444 -18l-145 133l578 663l524 695l147 -132l-559 -647z" />
<glyph unicode="&#x2154;" horiz-adv-x="2072" d="M1608 -12q-130 0 -219.5 39t-122.5 116l102 144q13 -30 77 -68.5t161 -38.5q85 0 140.5 23t55.5 67q0 101 -303 101h-51v174h49q275 0 275 94q0 27 -26 45t-59.5 24.5t-70.5 6.5q-140 0 -230 -97l-120 156q48 56 144.5 87.5t203.5 31.5q155 0 258.5 -69.5t103.5 -172.5 q0 -71 -52.5 -119t-145.5 -63q99 -13 159 -77.5t60 -149.5q0 -86 -58 -145t-143 -84t-188 -25zM758 604h-672q0 172 53.5 262.5t198.5 155.5q16 7 50.5 21.5t51 22.5t44 22t42 25.5t30 27t22 33.5t6.5 38q0 97 -150 97q-72 0 -132 -28t-99 -67l-113 140q40 56 138.5 98.5 t230.5 42.5q158 0 242.5 -74t84.5 -211q0 -202 -245 -280q-164 -52 -164 -139h381v-187zM557 -18l-145 133l577 663l524 695l148 -132l-559 -647z" />
<glyph unicode="&#x215b;" horiz-adv-x="2029" d="M1956 262q0 -118 -111 -196t-268 -78q-158 0 -267.5 80t-109.5 198q0 73 44.5 120t123.5 85q-60 24 -97.5 65.5t-37.5 100.5q0 69 52 126t130.5 87.5t161.5 30.5t162 -30t131.5 -87t52.5 -125q0 -57 -37 -100t-98 -68q168 -79 168 -209zM1763 283q0 45 -56 73.5 t-130 28.5q-76 0 -130 -28.5t-54 -73.5t57.5 -75t128.5 -30q73 0 128.5 30t55.5 75zM1423 618q0 -35 47 -56t107 -21t108 21t48 56q0 34 -46 56t-110 22q-63 0 -108.5 -22t-45.5 -56zM473 797h141v-189h-493v189h158v497q-24 -33 -85.5 -69.5t-105.5 -36.5v190q37 0 85 30 t75.5 56.5t30.5 32.5h194v-700zM469 -18l-145 133l577 663l524 695l148 -132l-559 -647z" />
<glyph unicode="&#x215c;" horiz-adv-x="2058" d="M424 592q-129 0 -219 40t-123 116l102 143q13 -30 77 -68.5t161 -38.5q85 0 140.5 23t55.5 67q0 101 -303 101h-51v174h49q275 0 275 96q0 26 -26 44t-60 25t-70 7q-140 0 -229 -96l-121 153q48 56 144.5 87.5t203.5 31.5q155 0 259 -69.5t104 -172.5q0 -71 -53 -119 t-146 -63q100 -13 159.5 -77t59.5 -150q0 -64 -33 -114t-89 -80t-123.5 -45t-143.5 -15zM1987 262q0 -118 -111 -196t-268 -78q-158 0 -267.5 80t-109.5 198q0 73 44.5 120t123.5 85q-60 24 -97.5 65.5t-37.5 100.5q0 69 52 126t130.5 87.5t161.5 30.5t162 -30t131.5 -87 t52.5 -125q0 -57 -37 -100t-98 -68q168 -79 168 -209zM1794 283q0 45 -56 73.5t-130 28.5q-76 0 -130.5 -28.5t-54.5 -73.5t58 -75t129 -30q73 0 128.5 30t55.5 75zM1454 618q0 -35 47 -56t107 -21t107.5 21t47.5 56q0 34 -45.5 56t-109.5 22q-63 0 -108.5 -22t-45.5 -56z M551 -18l-145 133l577 663l524 695l148 -132l-559 -647z" />
<glyph unicode="&#x215d;" horiz-adv-x="2095" d="M2021 262q0 -118 -111 -196t-268 -78q-158 0 -267 80t-109 198q0 73 44.5 120t123.5 85q-136 55 -136 166q0 69 52 126t130.5 87.5t161.5 30.5t162 -30t132 -87t53 -125q0 -57 -37.5 -100t-98.5 -68q168 -79 168 -209zM1829 283q0 45 -56.5 73.5t-130.5 28.5 q-76 0 -130 -28.5t-54 -73.5t58 -75t129 -30q73 0 128.5 30t55.5 75zM1489 618q0 -35 46.5 -56t106.5 -21t108 21t48 56q0 34 -46 56t-110 22q-63 0 -108 -22t-45 -56zM453 1188q149 0 246.5 -79.5t97.5 -203.5q0 -133 -109.5 -218t-277.5 -85q-110 0 -201.5 39t-138.5 107 l110 129q91 -91 240 -91q80 0 131 32t51 95q0 65 -50.5 99.5t-113.5 34.5q-50 0 -101.5 -26t-74.5 -65h-166q15 80 61 269t60 272h510v-190h-373l-43 -146q61 27 142 27zM557 -18l-145 133l577 663l524 695l148 -132l-559 -647z" />
<glyph unicode="&#x215e;" horiz-adv-x="1966" d="M1894 262q0 -118 -110.5 -196t-267.5 -78q-158 0 -267.5 80t-109.5 198q0 73 44.5 120t123.5 85q-136 55 -136 166q0 69 52.5 126t131 87.5t161.5 30.5t162 -30t131.5 -87t52.5 -125q0 -57 -37.5 -100t-98.5 -68q168 -79 168 -209zM1702 283q0 45 -56 73.5t-130 28.5 q-76 0 -130.5 -28.5t-54.5 -73.5t58 -75t129 -30q73 0 128.5 30t55.5 75zM1362 618q0 -35 47 -56t107 -21t107.5 21t47.5 56q0 34 -45.5 56t-109.5 22q-63 0 -108.5 -22t-45.5 -56zM360 -18l-145 133l578 663l524 695l147 -132l-559 -647zM129 616l436 691h-481v190h780 l-518 -881h-217z" />
<glyph unicode="&#x2212;" horiz-adv-x="1067" d="M948 567h-827v260h827v-260z" />
<glyph unicode="&#x2215;" horiz-adv-x="1290" d="M150 -18l-187 155l1178 1336l184 -154z" />
<glyph unicode="&#x2219;" horiz-adv-x="487" d="M377 492h-266v339h266v-339z" />
<glyph unicode="&#x25fc;" horiz-adv-x="1075" d="M0 1075h1075v-1075h-1075v1075z" />
<glyph unicode="&#xf6c3;" horiz-adv-x="450" d="M57 -412v129q78 0 78 56v131h266v-144q0 -46 -18 -78t-46 -50t-75.5 -28t-93 -13t-111.5 -3z" />
<glyph unicode="&#xfb06;" horiz-adv-x="1814" d="M1739 317l61 -260q-178 -77 -330 -77q-64 0 -116.5 15.5t-94 48.5t-65 89.5t-23.5 132.5v561h-137v248h137q-2 165 -29.5 226t-115.5 61t-134 -47.5t-46 -120.5q0 -60 26.5 -120.5t61.5 -100.5l-123 -207q-170 102 -303 102q-64 0 -102.5 -22.5t-38.5 -69.5q0 -22 10 -39 t23.5 -27.5t44 -20.5t53 -15t69.5 -15q223 -45 316.5 -116.5t93.5 -206.5q0 -170 -119 -263t-315 -93q-129 0 -272.5 38.5t-237.5 96.5l121 223q209 -127 381 -127q143 0 143 88q0 12 -2.5 22t-9.5 18.5t-14 15t-20.5 13t-24 10.5t-30.5 10t-33.5 9.5t-40 10t-42.5 10.5 q-211 54 -297 118t-86 191q0 112 58.5 198t150.5 128.5t198 42.5q163 0 271 -64q-45 79 -45 170q0 135 97.5 218t299.5 83q76 0 134.5 -10t99.5 -26.5t70 -46t46 -61t26 -80t12 -94t3 -110.5h219v-248h-219v-448q0 -100 94 -100q59 0 146 38z" />
<glyph horiz-adv-x="1220" d="M309 0h-315l498 1153h239l494 -1153h-312l-102 242h-403zM745 498l-135 299l-139 -299h274z" />
<glyph horiz-adv-x="1234" d="M1174 295q0 -98 -59.5 -166t-154.5 -98.5t-217 -30.5h-618v1153h706q126 0 206.5 -90t80.5 -207q0 -84 -47 -157t-133 -107q112 -30 174 -105t62 -192zM874 356q0 47 -33.5 79t-84.5 32h-336v-219h323q55 0 93 30t38 78zM715 901h-295v-203h285q54 0 88 24.5t34 78.5 q0 50 -31.5 75t-80.5 25z" />
<glyph horiz-adv-x="1218" d="M57 586q0 107 42.5 209t119.5 183.5t196 131t261 49.5q169 0 297.5 -68t189.5 -184l-225 -159q-25 55 -72.5 90t-95.5 47t-100 12q-77 0 -138.5 -28t-99 -74t-57 -102t-19.5 -115q0 -134 88 -230t230 -96q83 0 157 36.5t107 112.5l242 -143q-37 -83 -121.5 -145 t-186.5 -92.5t-206 -30.5q-130 0 -245.5 51.5t-194 135.5t-124 191.5t-45.5 217.5z" />
<glyph horiz-adv-x="1308" d="M606 0h-481v1153h481q154 0 277.5 -45t202 -123t120 -181.5t41.5 -223.5q0 -263 -175.5 -421.5t-465.5 -158.5zM948 580q0 143 -91.5 230t-250.5 87h-186v-641h186q160 0 251 90.5t91 233.5z" />
<glyph horiz-adv-x="1103" d="M420 256h610v-256h-905v1153h889v-256h-594v-190h512v-240h-512v-211z" />
<glyph horiz-adv-x="1036" d="M420 0h-295v1153h874v-256h-579v-217h479v-240h-479v-440z" />
<glyph horiz-adv-x="1468" d="M780 -10q-155 0 -292 62.5t-230 166t-147 239t-54 279.5q0 140 50.5 271t140.5 232.5t226 162.5t296 61q185 0 329 -79t226 -222l-266 -209q-12 23 -25 44t-42 53.5t-60.5 55.5t-80 40.5t-101.5 17.5q-110 0 -192.5 -65t-121.5 -163t-39 -210q0 -62 13 -123t41 -118 t68.5 -100.5t99.5 -70t129 -26.5q110 0 197 61t118 146h-277v295h641q0 -1 -1 -79t-1 -79q-3 -131 -50.5 -248t-130 -204.5t-203 -139t-261.5 -51.5z" />
<glyph horiz-adv-x="1275" d="M950 0v102q-130 -110 -307 -110q-156 0 -292 82t-215 219t-79 293q0 159 80 291t220.5 208t310.5 76q165 0 292 -67.5t191 -184.5l-221 -166q-38 72 -113 114t-162 42q-131 0 -215 -92.5t-84 -231.5q0 -141 88.5 -231t223.5 -90q155 0 282 133v10h-245v211h491v-608h-246 z" />
<glyph horiz-adv-x="1357" d="M938 1153h295v-1153h-295v461h-518v-461h-295v1153h295v-434h518v434z" />
<glyph horiz-adv-x="544" d="M420 0h-295v1153h295v-1153z" />
<glyph horiz-adv-x="913" d="M20 53l66 240q102 -49 215 -49q54 0 90.5 12.5t59.5 34.5t35 64t16 89.5t4 122.5v586h293v-586q0 -83 -4 -144t-17 -125.5t-35 -109.5t-59.5 -86t-89.5 -66t-125.5 -39.5t-167.5 -14.5q-163 0 -281 71z" />
<glyph horiz-adv-x="1243" d="M420 0h-295v1153h295v-494l502 494h305l-484 -514l514 -639h-309l-379 473l-149 -129v-344z" />
<glyph horiz-adv-x="997" d="M969 0h-844v1153h295v-897h549v-256z" />
<glyph horiz-adv-x="550" d="M498 1495l-195 -324l-209 58l107 266h297z" />
<glyph horiz-adv-x="1562" d="M1438 0h-295v643l-283 -459h-158l-282 459v-643h-295v1153h321l336 -569l338 569h318v-1153z" />
<glyph horiz-adv-x="1380" d="M1018 0l-598 608v-608h-295v1153h231l605 -627v627h292v-1153h-235z" />
<glyph horiz-adv-x="1341" d="M670 -10q-133 0 -249.5 50t-195 132.5t-123.5 188.5t-45 217q0 113 47 219t127.5 186t196.5 128t246 48q108 0 205 -33t169.5 -90t126.5 -131.5t81.5 -160t27.5 -173.5q0 -112 -46 -217.5t-126 -186t-195.5 -129t-246.5 -48.5zM356 575q0 -85 35.5 -157.5t109 -119 t171.5 -46.5q100 0 173 49t106.5 121.5t33.5 155.5q0 131 -85.5 225t-229.5 94q-75 0 -136 -27.5t-99 -73.5t-58.5 -103t-20.5 -118z" />
<glyph horiz-adv-x="1132" d="M420 0h-295v1153h551q89 0 168.5 -34.5t133.5 -90t86 -126.5t32 -144q0 -102 -50.5 -192.5t-146 -148t-215.5 -57.5h-264v-360zM420 897v-279h246q58 0 94.5 35t36.5 105t-41.5 104.5t-98.5 34.5h-237z" />
<glyph horiz-adv-x="1345" d="M1051 0l-70 72q-141 -80 -311 -80q-133 0 -249.5 50t-195 132t-123.5 187.5t-45 216.5q0 113 47 219.5t127.5 186.5t196.5 128.5t246 48.5q108 0 205 -33t169.5 -90.5t126.5 -132t81.5 -160.5t27.5 -174q0 -210 -145 -374l190 -197h-278zM672 254q61 0 114 18l-192 201 h278l68 -70q45 79 45 175q0 132 -85.5 226.5t-229.5 94.5q-75 0 -136 -28t-99 -74.5t-58.5 -103.5t-20.5 -118q0 -132 84.5 -226.5t231.5 -94.5z" />
<glyph horiz-adv-x="1239" d="M420 0h-295v1153h580q118 0 216 -58.5t150.5 -148.5t52.5 -188q0 -103 -56.5 -192t-154.5 -140l297 -426h-333l-259 360h-198v-360zM420 897v-279h276q55 0 92 38.5t37 101.5q0 62 -42 100.5t-97 38.5h-266z" />
<glyph horiz-adv-x="1101" d="M1004 1036l-127 -243q-32 30 -132.5 69t-197.5 39q-148 0 -148 -74q0 -41 44 -62.5t159 -52.5q35 -9 53 -14q98 -26 162.5 -52t119.5 -66t81 -97.5t26 -136.5q0 -78 -26 -140.5t-70 -103t-105.5 -67.5t-127.5 -38t-140 -11q-137 0 -279.5 37.5t-252.5 101.5l129 256 q38 -40 159.5 -85.5t248.5 -45.5q145 0 145 69q0 16 -6.5 28.5t-23 23.5t-32 19t-47 17.5t-53.5 15.5t-65.5 17.5t-69.5 18.5q-175 49 -254.5 124t-79.5 205q0 118 64 204.5t167.5 128.5t229.5 42q214 0 449 -127z" />
<glyph horiz-adv-x="1144" d="M1112 1153v-256h-391v-897h-295v897h-395v256h1081z" />
<glyph horiz-adv-x="1331" d="M664 252q72 0 125.5 25.5t83 70.5t43.5 97.5t14 115.5v592h295v-592q0 -122 -33.5 -224t-100 -180.5t-175.5 -122.5t-252 -44q-145 0 -255.5 46t-175.5 126.5t-97 180.5t-32 218v592h295v-592q0 -63 14.5 -117t44.5 -98t82.5 -69t123.5 -25z" />
<glyph horiz-adv-x="1224" d="M-6 1153h313l305 -737l303 737h312l-492 -1153h-246z" />
<glyph horiz-adv-x="2289" d="M1907 1456h383l-453 -1454h-348l-346 903l-340 -905h-348l-453 1454h381l279 -948l299 948h364l305 -946z" />
<glyph horiz-adv-x="1925" d="M772 608l-213 543h270l132 -360l133 360h272l-217 -543l119 -254l340 799h321l-516 -1153h-246l-204 430l-205 -430h-248l-516 1153h319l344 -799z" />
<glyph horiz-adv-x="1200" d="M-2 1153h319l283 -379l283 379h319l-446 -584l432 -569h-318l-270 362l-268 -362h-320l432 569z" />
<glyph horiz-adv-x="1179" d="M-10 1153h319l281 -512l284 512h320l-457 -766v-387h-295v389z" />
<glyph horiz-adv-x="1155" d="M61 0v219l674 678h-649v256h991v-219l-645 -678h653v-256h-1024z" />
<glyph horiz-adv-x="1310" d="M559 -20q-147 0 -263.5 73t-180.5 200.5t-64 285.5q0 236 135.5 396.5t339.5 160.5q112 0 204 -53t142 -144v162h328v-1061h-328v160q-102 -180 -313 -180zM872 406v223q-32 85 -98.5 136.5t-142.5 51.5q-103 0 -172.5 -85.5t-69.5 -199.5q0 -119 72 -197.5t184 -78.5 q141 0 227 150z" />
<glyph horiz-adv-x="1173" d="M1075 0h-315v141q-57 -79 -144.5 -120t-197.5 -41q-160 0 -266.5 98t-106.5 244q0 107 62 189.5t166.5 125.5t232.5 43q150 0 242 -45v49q0 186 -216 186q-158 0 -335 -118l-97 204q213 140 465 140q245 0 377.5 -117t132.5 -334v-645zM700 283q48 38 48 77v103 q-87 35 -187 35q-85 0 -146 -40.5t-61 -107.5q0 -58 46 -96.5t114 -38.5q51 0 102 18t84 50z" />
<glyph horiz-adv-x="1990" d="M1915 317l61 -260q-178 -77 -329 -77q-133 0 -216 69.5t-83 216.5v561h-138v248h138q-1 63 -4 104.5t-13 79.5t-27.5 58.5t-46 32.5t-69.5 12q-166 0 -166 -184q0 -132 108 -367l-319 -96q-65 102 -188 102q-104 0 -171 -79t-67 -201q0 -123 69.5 -202t170.5 -79 q59 0 110.5 28t77.5 78l320 -98q-63 -131 -195.5 -207.5t-310.5 -76.5q-134 0 -244.5 45.5t-182.5 123.5t-111.5 178.5t-39.5 211.5t38.5 210.5t110 177t185 123.5t252.5 46q93 0 158 -19t137 -61q-43 101 -43 180q0 147 102 227t297 80q81 0 143.5 -14t103 -34t69 -57.5 t42.5 -67t21.5 -82t8.5 -84t1 -89.5h219v-248h-219v-448q0 -51 25.5 -75.5t68.5 -24.5q59 0 146 38z" />
<glyph horiz-adv-x="1308" d="M1198 0h-326v156q-101 -176 -313 -176q-146 0 -262.5 73t-181 200.5t-64.5 285.5q0 155 60.5 282.5t169 201t243.5 73.5q112 0 203 -53t143 -144v596h328v-1495zM872 406v225q-32 82 -100.5 134t-142.5 52q-102 0 -171 -85t-69 -200q0 -120 73 -198t183 -78 q71 0 133 40.5t94 109.5z" />
<glyph horiz-adv-x="1245" d="M1161 440q0 -135 -73 -240.5t-196 -161.5t-271 -56q-145 0 -267 58t-196 166.5t-74 246.5q0 106 60.5 189t144.5 134q-69 38 -115.5 110t-46.5 150q0 97 46 178.5t119 132.5t159 79t172 28q68 0 137 -17t133.5 -51.5t114.5 -82.5t80 -116.5t30 -146.5t-46.5 -153 t-115.5 -111q86 -51 145.5 -137.5t59.5 -198.5zM827 461q0 83 -59 131.5t-145 48.5q-87 0 -146 -50.5t-59 -131.5q0 -77 61.5 -128.5t143.5 -51.5q85 0 144.5 52.5t59.5 129.5zM461 1030q0 -68 49 -105.5t113 -37.5t113.5 38.5t49.5 104.5q0 58 -47.5 96.5t-115.5 38.5 q-69 0 -115.5 -38.5t-46.5 -96.5z" />
<glyph horiz-adv-x="1173" d="M616 946q210 0 345 -131.5t135 -337.5q0 -219 -153.5 -357t-395.5 -138q-158 0 -285 63.5t-194 177.5l182 203q59 -72 139.5 -115t159.5 -43q95 0 153 55t58 146q0 87 -53.5 142t-137.5 55q-57 0 -104.5 -25.5t-75.5 -69.5h-283l168 885h723v-299h-485l-41 -248 q33 37 145 37z" />
<glyph horiz-adv-x="1208" d="M952 2h-327v305h-574v293l676 856h225v-856h181v-293h-181v-305zM662 965l-285 -365h285v365z" />
<glyph d="M111 -436v1495h327v-1495h-327zM111 1198v293h325v-293h-325z" />
<glyph horiz-adv-x="555" d="M115 0v1495h327v-1495h-327z" />
<glyph horiz-adv-x="1243" d="M78 956q0 141 70 258t193.5 184.5t274.5 67.5q254 0 397.5 -182.5t143.5 -507.5q0 -378 -153.5 -587t-421.5 -209q-133 0 -250 55.5t-205 159.5l184 208q51 -66 124 -102.5t153 -36.5q120 0 191 87t75 243q-86 -119 -266 -119q-218 0 -364 138.5t-146 342.5zM614 1190 q-91 0 -157 -69.5t-66 -164.5q0 -92 65.5 -156.5t159.5 -64.5q93 0 158.5 64.5t65.5 156.5q0 95 -67.5 164.5t-158.5 69.5z" />
<glyph horiz-adv-x="1058" d="M754 295h260v-295h-881v295h287v850q-37 -52 -146.5 -114t-187.5 -62v301q41 0 90 19.5t89.5 47t76.5 57t56 49t22 23.5h334v-1171z" />
<glyph horiz-adv-x="1306" d="M516 -20q-133 0 -239.5 74.5t-166 202.5t-59.5 284q0 155 64.5 282t179.5 200t256 73q231 0 360 -197v176h285v-1513h-328v612q-110 -194 -352 -194zM641 256q136 0 227 145v228q-25 79 -94 133.5t-143 54.5q-104 0 -175 -84.5t-71 -200.5q0 -121 71.5 -198.5 t184.5 -77.5z" />
<glyph horiz-adv-x="1181" d="M111 2l571 1155h-612v299h1128l-717 -1454h-370z" />
<glyph horiz-adv-x="1243" d="M1165 489q0 -141 -70 -257.5t-193 -184t-273 -67.5q-254 0 -397.5 182.5t-143.5 507.5q0 378 153 587t421 209q273 0 454 -215l-184 -209q-51 66 -123.5 103t-151.5 37q-121 0 -192 -87t-74 -243q87 117 266 117q217 0 362.5 -138t145.5 -342zM629 256q91 0 158 69 t67 164q0 92 -66 157t-159 65t-159.5 -65t-66.5 -157q0 -95 67.5 -164t158.5 -69z" />
<glyph horiz-adv-x="792" d="M526 0h-336v895h-161v295h161v309h336v-309h248v-295h-248v-895z" />
<glyph horiz-adv-x="1202" d="M551 -18q-171 0 -292 67t-179 195l170 223q7 -22 25.5 -49.5t52 -59.5t90.5 -53.5t127 -21.5q96 0 161.5 41t65.5 116q0 176 -399 176h-68v273h66q106 0 185.5 16.5t129 55.5t49.5 96q0 46 -30 77t-65 41.5t-71 10.5q-107 0 -180.5 -45.5t-112.5 -106.5l-208 242 q74 92 213.5 144.5t285.5 52.5q222 0 370 -114.5t148 -285.5q0 -118 -73 -197t-197 -106q134 -23 215.5 -128.5t81.5 -244.5q0 -105 -49 -187t-130.5 -130.5t-178.5 -73t-203 -24.5z" />
<glyph horiz-adv-x="1273" d="M1169 0h-1085q0 118 10 205t34 162t66.5 131t105 103t151.5 87q46 21 65.5 30t60.5 29t60 33t50 34.5t46 40.5t32 44t23.5 53t6.5 60q0 81 -47.5 124.5t-129.5 43.5q-90 0 -176 -47.5t-151 -114.5l-203 217q81 92 233.5 163.5t342.5 71.5q241 0 372 -120.5t131 -333.5 q0 -87 -22.5 -155.5t-68.5 -121t-100 -91t-132 -77.5q-143 -72 -213 -133.5t-70 -142.5h608v-295z" />
<glyph horiz-adv-x="1253" d="M1143 0h-314v166q-54 -94 -153 -140t-217 -46q-357 0 -357 407v688h328v-616q0 -203 158 -203q63 0 123 39t104 117v663h328v-1075z" />
<glyph horiz-adv-x="1806" d="M1434 0h-357l-176 563l-174 -563h-354l-367 1075h338l219 -686l187 686h307l184 -686l221 686h336z" />
<glyph horiz-adv-x="1116" d="M805 1075h307l-491 -1511h-381q1 1 37.5 95t79 203t55.5 138l-410 1075h338l250 -794z" />
<glyph horiz-adv-x="1449" d="M725 -20q-123 0 -230 45t-181.5 120t-128.5 171t-79.5 198.5t-25.5 202.5q0 105 28.5 210.5t84.5 200t132 167.5t180 116t220 43q122 0 229 -46t181.5 -122t128.5 -172.5t80 -198t26 -198.5q0 -106 -28.5 -212t-84.5 -200.5t-132.5 -167t-180.5 -115t-219 -42.5zM420 717 q0 -80 18.5 -155.5t54.5 -140t96 -103.5t136 -39q77 0 138 42t95.5 109t52 140.5t17.5 146.5q0 79 -19 155t-55 140.5t-95.5 103.5t-133.5 39q-78 0 -139.5 -42t-96 -109t-52 -140.5t-17.5 -146.5z" />
</font>
</defs>
</svg>
